238 lines
4.9 KiB
Plaintext
238 lines
4.9 KiB
Plaintext
//TJADB Project
|
|
TITLE:Morainaki
|
|
TITLEJA:もらい泣き
|
|
SUBTITLE:--Yo Hitoto
|
|
BPM:90
|
|
WAVE:Morainaki.ogg
|
|
OFFSET:-5.639
|
|
DEMOSTART:87.625
|
|
|
|
COURSE:Oni
|
|
LEVEL:7
|
|
SCOREINIT:780
|
|
SCOREDIFF:210
|
|
|
|
|
|
#START
|
|
|
|
|
|
,
|
|
,
|
|
|
|
#GOGOSTART
|
|
300000000100200000100000100000000100200000100000,
|
|
100000100000100100000000300000000100200000100000,
|
|
100000000100200000100000100000000100200000100000,
|
|
100000000100200000100000100000000100200000100000,
|
|
300000000100200000100000100000000100200000100000,
|
|
100100000000100100000000100000000100200000100000,
|
|
100000000100200000100000100000000100200000100000,
|
|
500000000000000000000000000000000008000000000000,
|
|
|
|
#GOGOEND
|
|
#MEASURE 16/4
|
|
#BPMCHANGE 120
|
|
100120101120200010012010112020001001201011202000,
|
|
100120101120200010012010111020001011202011102022,
|
|
100120101110200010012010201121102001200110102001,
|
|
100120111110201010012010111020201011102101010000,
|
|
#MEASURE 8/4
|
|
#BPMCHANGE 180
|
|
00001010100020001010100020000022,
|
|
20001010100020001010100020200022,
|
|
2001101100101010,
|
|
100000000000000000100000100000000000500000000000000000000000000008000000100000100000000000000000,
|
|
00001010100020001010100022202020,
|
|
20001010100020001010100020001011,
|
|
10002022200010111000202220001000,
|
|
33333333,
|
|
600000000000000000000000000000000000000000000008000000000000000000000000300000000000300000000000,
|
|
|
|
#GOGOSTART
|
|
#MEASURE 16/4
|
|
#BPMCHANGE 240
|
|
300000101000100010000010100010003010000030100000,
|
|
300000001000101010201010201020101000001010001000,
|
|
100010202010102010000020300030003000001010001020,
|
|
100020101000201030100020301000203000101020001000,
|
|
100000111000100010000000300000001011201120112011,
|
|
#MEASURE 8/4
|
|
201120111111
|
|
|
|
#GOGOEND
|
|
100000000000,
|
|
|
|
|
|
#END
|
|
|
|
|
|
COURSE:Hard
|
|
LEVEL:5
|
|
SCOREINIT:920
|
|
SCOREDIFF:230
|
|
|
|
|
|
#START
|
|
|
|
|
|
000000000000000000000000000000000000000000000000,
|
|
000000000000000000000000000000000000000000000000,
|
|
000000000000000000000000000000000000000000000000,
|
|
000000000000000000000000000000000000000000000000,
|
|
300000000000400000100000100000000100100000100000,
|
|
300000000000300000000000300000000000200000200000,
|
|
100000000100100000100000100000000000200000200000,
|
|
100000000100100000100000100000000000100000100000,
|
|
300000000000400000100000100000000100100000100000,
|
|
300000000000300000000000300000000000200000200000,
|
|
100000000100100000100000100000000000200000200000,
|
|
500000000000000000000800000000000000000000000000,
|
|
100000000000200000000000100100100000200000000000,
|
|
000200200200200000000200200200200000000000000000,
|
|
100000000000200000000000100100100000200000000000,
|
|
100000100000200000000000100100100000200000000000,
|
|
100000000100200000000000100100100000200000000000,
|
|
100000100000200000000000100100100000200000000000,
|
|
100000000100200000000000100100100000200000000000,
|
|
100000100000200000000000100100100000200000000000,
|
|
100000000100200000100000100000100100100000000000,
|
|
100000000100200000100000100000100100100000000000,
|
|
100000000100200000100000100000100100100000000000,
|
|
100000000100200000100000000300000300000000000000,
|
|
000000100100100000200000100100100000200000000000,
|
|
000000100100100000200000100100100000200000000000,
|
|
000000000100100000100100000000100000100000100000,
|
|
100000000100100000500000000000000000000800000000,
|
|
000000100100100000200000100100100000200000000000,
|
|
000000100100100000200000100100100000200000100100,
|
|
100000200200200000100100100000200200200000200000,
|
|
100000100000100000100000100000100000100000100000,
|
|
500000000000000000000800000000000000000000000000,
|
|
#GOGOSTART
|
|
300000000100200000100000100000000100100000100000,
|
|
300000000000300000000000300000000000200000200000,
|
|
100000000100100000100000100000000000200000200000,
|
|
100000000100100000100000100000000000100000100000,
|
|
300000000100200000100000100000000100100000100000,
|
|
300000000000300000000000300000000000200000200000,
|
|
100000000100100000100000100000000000200000000000,
|
|
100000100000500000000000000000000800000000000000,
|
|
#GOGOEND
|
|
|
|
|
|
#END
|
|
|
|
|
|
COURSE:Normal
|
|
LEVEL:2
|
|
SCOREINIT:890
|
|
SCOREDIFF:300
|
|
|
|
|
|
#START
|
|
|
|
|
|
#BPMCHANGE 190
|
|
,
|
|
,
|
|
3412,
|
|
3330,
|
|
1112,
|
|
1101,
|
|
3412,
|
|
3330,
|
|
10101011,
|
|
500000000000000000000008000000000000000000000000,
|
|
10200220,
|
|
10200220,
|
|
10200220,
|
|
10200220,
|
|
10201120,
|
|
1210,
|
|
10201120,
|
|
1210,
|
|
10201120,
|
|
1210,
|
|
10201120,
|
|
10200110,
|
|
01101100,
|
|
01101100,
|
|
0112,
|
|
1120,
|
|
01101100,
|
|
01101102,
|
|
20022000,
|
|
11111110,
|
|
500000000000000000000008000000000000000000000000,
|
|
|
|
#GOGOSTART
|
|
3412,
|
|
3330,
|
|
1112,
|
|
1101,
|
|
3412,
|
|
3330,
|
|
1112,
|
|
500000000000000000000000000000000008000000000000,
|
|
|
|
#GOGOEND
|
|
|
|
|
|
#END
|
|
|
|
|
|
COURSE:Easy
|
|
LEVEL:3
|
|
SCOREINIT:900
|
|
SCOREDIFF:330
|
|
|
|
|
|
#START
|
|
|
|
|
|
,
|
|
,
|
|
1110,
|
|
3330,
|
|
1110,
|
|
1100,
|
|
1110,
|
|
3330,
|
|
1111,
|
|
500000000000000000000008000000000000000000000000,
|
|
1102,
|
|
1102,
|
|
1102,
|
|
1102,
|
|
10001110,
|
|
20001110,
|
|
10001110,
|
|
20001110,
|
|
10001120,
|
|
10001120,
|
|
10001120,
|
|
10001120,
|
|
0110,
|
|
0110,
|
|
0111,
|
|
500000000000000000000008000000000000000000000000,
|
|
0110,
|
|
0110,
|
|
0110,
|
|
3333,
|
|
500000000000000000000008000000000000000000000000,
|
|
|
|
#GOGOSTART
|
|
1110,
|
|
3330,
|
|
1110,
|
|
11,
|
|
1110,
|
|
3330,
|
|
1111,
|
|
500000000000000000000000000000000008000000000000,
|
|
|
|
|
|
#END
|
|
|