275 lines
11 KiB
Plaintext
275 lines
11 KiB
Plaintext
//TJADB Project
|
|
TITLE:Naminori Johnny
|
|
TITLEJA:波乗りジョニー
|
|
SUBTITLE:--Keisuke Kuwata/No Reason
|
|
BPM:138
|
|
WAVE:Naminori Johnny.ogg
|
|
OFFSET:-2.049
|
|
DEMOSTART:55.699
|
|
|
|
COURSE:Oni
|
|
LEVEL:7
|
|
|
|
|
|
#START
|
|
|
|
|
|
200000000000000000000000000000000000000000000000,
|
|
100000000000100000000000100000000000200000100000,
|
|
000000100000100000000000100000000000200000000000,
|
|
100000000000000000100000000000000000100000000000,
|
|
100000000000000000100000000000000000100000000000,
|
|
100000000000000000100000000000000000000000000000,
|
|
300000000000000000000000300000000000000000000000,
|
|
100000100100100000100000000000100000100000100000,
|
|
100000100100100000100000000000100000100000100000,
|
|
100000100100100000200000100000100100100000200000,
|
|
100000100100100000200000100000100100100000200000,
|
|
100000100000200000100000100000200000100000100000,
|
|
100000100000200000100000100000200000100000100000,
|
|
100000000000000000200000000000200000000000200000,
|
|
300000000000000000000000300000000000000000000000,
|
|
100000100100100000100000000000100000100000100000,
|
|
100000100100100000100000000000100000100000100000,
|
|
100000100100100000200000100000100100100000200000,
|
|
100000100100100000200000100000100100100000200000,
|
|
100000100000100000100000000000100100100000200000,
|
|
100000100000100000100000000000100100100000200000,
|
|
100000000000100000000000100000100000000000300000,
|
|
000000000000000000000000000000000000000000000000,
|
|
100000000000000000100100100000000000200000000000,
|
|
100000000000000000100100100000000000200000000000,
|
|
100000000000000000100100100000000000200000000000,
|
|
100000000000000000100100100000100000100000100000,
|
|
100000000000100000100000000000200000100000100000,
|
|
100000000000100000100000000000200000100000100000,
|
|
100000000000100000100000000000200000100000100000,
|
|
100000100100100000100100100000100000100000100000,
|
|
000000100100100000200000100000000000200000100000,
|
|
000000100100100000200000100000000000200000100000,
|
|
000000100100100000200000100000000000200000100000,
|
|
000000000000000000100100100000000000000000100000,
|
|
100000200000100000100000000000100000100000100000,
|
|
000000100000100000100000000000100000100000000000,
|
|
000000100000000000100000100000000000100000100000,
|
|
200000200000200000100100100000100000100000100000,
|
|
000000100000100000200000100000000000200000100000,
|
|
000000100000100000200000100000000000200000100000,
|
|
000000100000100000200000100000000000200000100000,
|
|
100000100000100000100100100000200000200000100000,
|
|
100000000000100000100000000000200000000000100100,
|
|
100000200000200000100100100000200000200000100000,
|
|
100000200000100000100000100000000000000000100000,
|
|
100000200000100000100000100000200000000000200000,
|
|
100000000000100000000000100000000000100000100000,
|
|
100000000000100000000000100000000000200000100000,
|
|
000000100100100000200000100000000000200000200000,
|
|
100000000000100000000000100000000000200000100000,
|
|
000000100100100000200000100000000000200000200000,
|
|
300000000000000000000000000000000000000000000000,
|
|
|
|
|
|
#END
|
|
|
|
|
|
COURSE:Hard
|
|
LEVEL:4
|
|
SCOREINIT:730
|
|
SCOREDIFF:170
|
|
|
|
|
|
#START
|
|
|
|
|
|
200000000000000000000000000000000000000000000000,
|
|
100000000000100000000000100000000000200000100000,
|
|
000000100000100000000000100000000000200000000000,
|
|
100000000000000000100000000000000000100000000000,
|
|
100000000000000000100000000000000000100000000000,
|
|
100000000000000000100000000000000000000000000000,
|
|
300000000000000000000000300000000000000000000000,
|
|
100000100100100000100000000000100000100000100000,
|
|
100000100100100000100000000000100000100000100000,
|
|
100000100100100000200000100000100100100000200000,
|
|
100000100100100000200000100000100100100000200000,
|
|
100000100000200000100000100000200000100000100000,
|
|
100000100000200000100000100000200000100000100000,
|
|
100000000000000000200000000000200000000000200000,
|
|
300000000000000000000000300000000000000000000000,
|
|
100000100100100000100000000000100000100000100000,
|
|
100000100100100000100000000000100000100000100000,
|
|
100000100100100000200000100000100100100000200000,
|
|
100000100100100000200000100000100100100000200000,
|
|
100000100000100000100000000000100100100000200000,
|
|
100000100000100000100000000000100100100000200000,
|
|
100000000000100000000000100000100000000000300000,
|
|
000000000000000000000000000000000000000000000000,
|
|
100000000000000000100100100000000000200000000000,
|
|
100000000000000000100100100000000000200000000000,
|
|
100000000000000000100100100000000000200000000000,
|
|
100000000000000000100100100000100000100000100000,
|
|
100000000000100000100000000000200000100000100000,
|
|
100000000000100000100000000000200000100000100000,
|
|
100000000000100000100000000000200000100000100000,
|
|
100000100100100000100100100000100000100000100000,
|
|
000000100100100000200000100000000000200000100000,
|
|
000000100100100000200000100000000000200000100000,
|
|
000000100100100000200000100000000000200000100000,
|
|
000000000000000000100100100000000000000000100000,
|
|
100000200000100000100000000000100000100000100000,
|
|
000000100000100000100000000000100000100000000000,
|
|
000000100000000000100000100000000000100000100000,
|
|
200000200000200000100100100000100000100000100000,
|
|
000000100000100000200000100000000000200000100000,
|
|
000000100000100000200000100000000000200000100000,
|
|
000000100000100000200000100000000000200000100000,
|
|
100000100000100000100100100000200000200000100000,
|
|
100000000000100000100000000000200000000000100100,
|
|
100000200000200000100100100000200000200000100000,
|
|
100000200000100000100000100000000000000000100000,
|
|
100000200000100000100000100000200000000000200000,
|
|
100000000000100000000000100000000000100000100000,
|
|
100000000000100000000000100000000000200000100000,
|
|
000000100100100000200000100000000000200000200000,
|
|
100000000000100000000000100000000000200000100000,
|
|
000000100100100000200000100000000000200000200000,
|
|
300000000000000000000000000000000000000000000000,
|
|
|
|
|
|
#END
|
|
|
|
|
|
COURSE:Normal
|
|
LEVEL:4
|
|
SCOREINIT:770
|
|
SCOREDIFF:200
|
|
|
|
|
|
#START
|
|
|
|
|
|
100000000000000000000000000000000000000000000000,
|
|
100000000000100000000000100000000000100000100000,
|
|
000000000000000000000000100000000000200000000000,
|
|
100000000000000000100000000000000000200000000000,
|
|
100000000000000000100000000000000000200000000000,
|
|
100000000000000000100000000000000000000000000000,
|
|
300000000000000000000000300000000000000000000000,
|
|
100000000000100000100000000000100000100000000000,
|
|
100000000000100000100000000000100000100000000000,
|
|
100000000000100000100000000000100000100000000000,
|
|
100000000000100000100000000000100000100000000000,
|
|
100000100000100000100000000000100000100000000000,
|
|
100000100000100000100000000000100000100000000000,
|
|
100000000000000000200000000000200000000000000000,
|
|
300000000000000000000000300000000000000000000000,
|
|
100000000000100000100000000000100000200000000000,
|
|
100000000000100000100000000000100000200000000000,
|
|
100000000000100000100000000000100000200000000000,
|
|
100000000000100000100000000000100000200000000000,
|
|
100000100000100000100000000000100000200000000000,
|
|
100000100000100000100000000000100000200000000000,
|
|
100000000000100000000000100000000000000000300000,
|
|
000000000000000000000000000000000000000000000000,
|
|
100000000000000000100100100000000000000000000000,
|
|
100000000000000000100100100000000000000000000000,
|
|
100000000000000000100100100000000000000000000000,
|
|
100000000000000000100100100000100000100000000000,
|
|
100000000000100000100000000000000000100000000000,
|
|
100000000000100000100000000000000000100000000000,
|
|
100000000000100000100000000000000000100000000000,
|
|
100000100000000000100000100000000000100000100000,
|
|
000000100000100000100000200000000000100000100000,
|
|
000000100000100000100000200000000000100000100000,
|
|
000000100000100000100000200000000000100000100000,
|
|
000000000000000000100100100000000000000000100000,
|
|
100000000000100000100000000000100000100000100000,
|
|
000000100000100000100000000000100000100000000000,
|
|
000000100000000000100000100000000000100000100000,
|
|
000000000000000000100100100000100000000000100000,
|
|
000000100000100000100000200000000000100000100000,
|
|
000000100000100000100000200000000000100000100000,
|
|
000000100000100000100000200000000000100000100000,
|
|
000000000000000000100100100000000000000000100000,
|
|
100000000000100000100000000000200000000000100000,
|
|
100000100000100000100100100000000000000000100000,
|
|
100000000000100000100000100000000000000000100000,
|
|
100000000000100000100000100000200000000000000000,
|
|
100000000000100000000000100000000000100000100000,
|
|
100000000000100000000000100000000000200000100000,
|
|
000000100000100000000000100000000000200000000000,
|
|
100000000000100000000000100000000000200000100000,
|
|
000000100000100000000000100000000000200000000000,
|
|
300000000000000000000000000000000000000000000000,
|
|
|
|
|
|
#END
|
|
|
|
|
|
COURSE:Easy
|
|
LEVEL:4
|
|
SCOREINIT:890
|
|
SCOREDIFF:260
|
|
|
|
|
|
#START
|
|
|
|
|
|
100000000000000000000000000000000000000000000000,
|
|
100000000000100000000000100000000000000000100000,
|
|
000000000000000000000000200000000000000000000000,
|
|
100000000000000000100000000000000000000000000000,
|
|
100000000000000000100000000000000000000000000000,
|
|
100000000000000000100000000000000000000000000000,
|
|
300000000000000000000000000000000000000000000000,
|
|
100000000000100000100000000000000000000000000000,
|
|
100000000000100000100000000000000000000000000000,
|
|
100000000000100000100000000000000000000000000000,
|
|
100000000000100000100000000000000000000000000000,
|
|
100000100000100000100000000000000000000000000000,
|
|
100000100000100000100000000000000000000000000000,
|
|
100000000000000000200000000000200000000000000000,
|
|
300000000000000000000000300000000000000000000000,
|
|
100000000000100000100000000000000000200000000000,
|
|
100000000000100000100000000000000000200000000000,
|
|
100000000000100000100000000000000000200000000000,
|
|
100000000000100000100000000000000000200000000000,
|
|
100000100000100000100000000000000000200000000000,
|
|
100000100000100000100000000000000000200000000000,
|
|
100000000000000000000000100000100000000000300000,
|
|
000000000000000000000000000000000000000000000000,
|
|
100000000000000000100000100000000000000000000000,
|
|
100000000000000000100000100000000000000000000000,
|
|
100000000000000000100000100000000000000000000000,
|
|
100000000000000000100000100000000000000000000000,
|
|
100000000000100000100000000000000000000000000000,
|
|
100000000000100000100000000000000000000000000000,
|
|
100000000000100000100000000000000000000000000000,
|
|
100000000000100000100000000000000000000000100000,
|
|
000000100000100000000000200000000000000000100000,
|
|
000000100000100000000000200000000000000000100000,
|
|
000000100000100000000000200000000000000000100000,
|
|
000000000000000000100000100000000000000000100000,
|
|
100000000000100000100000000000000000200000000000,
|
|
000000100000100000100000000000000000100000000000,
|
|
000000100000000000000000100000000000000000300000,
|
|
000000000000000000100000100000100000000000100000,
|
|
000000100000100000000000200000000000000000100000,
|
|
000000100000100000000000200000000000000000100000,
|
|
000000100000100000000000200000000000000000100000,
|
|
000000000000000000100000100000000000000000100000,
|
|
100000000000100000100000000000200000000000100000,
|
|
100000000000000000100000100000000000000000100000,
|
|
100000000000100000100000100000000000000000100000,
|
|
100000000000100000100000100000000000000000000000,
|
|
100000000000100000000000100000000000000000500000,
|
|
000000000000000000000000000000000000000800000000,
|
|
000000000000000000000000100000000000100000000000,
|
|
100000000000000000000000100000000000100000100000,
|
|
000000000000000000000000100000000000100000000000,
|
|
300000000000000000000000000000000000000000000000,
|
|
|
|
|
|
#END
|
|
|