Files
ESE/01 Pop/Ne~e/Ne~e.tja
T
2023-06-15 19:15:39 -05:00

271 lines
11 KiB
Plaintext
Raw Blame History

This file contains ambiguous Unicode characters
This file contains Unicode characters that might be confused with other characters. If you think that this is intentional, you can safely ignore this warning. Use the Escape button to reveal them.
//TJADB Project
TITLE:Ne~e?
TITLEJA:ね~え?
SUBTITLE:--Aya Matsuura/TESSERA
BPM:169
WAVE:Ne~e.ogg
OFFSET:-2.003
DEMOSTART:3.372
COURSE:Oni
LEVEL:3
#START
000000000000000000200000200000000000200000000000,
100000000000100000100000000000200000200000000000,
100000100000000000100000000000200000200000000000,
100000000000100000100000200000100000200000100000,
000000000000000000200000200000000000200000000000,
100000000000100000100000000000200000200000000000,
100000100000000000100000000000200000200000000000,
100000000000100000100000200000100000200000100000,
000000100000100000000000000000000000000000000000,
100000000000100000100000200000100000200000100000,
000000100000100000000000000000000000000000000000,
000000000000000000000000000000000000000000000000,
000000000000000000000000000000000000000000000000,
200000200000100000100000200000100000200000100000,
200000200000100000100000200000300000000000000000,
200000200000100000100000200000100000200000100000,
200000200000100000100000200000300000000000000000,
100000000000000000100000000000000000100000200000,
100000000000000000100000000000000000000000000000,
100000000000000000100000000000000000100000200000,
100000000000100000100000000000000000000000000000,
100000000000000000100000000000000000100000200000,
100000000000000000100000000000000000100000200000,
500000000000000000000000000000000000000000000008,
000000000000000000000000000000000000000000000000,
100000000000000000100000000000000000200000200000,
100000000000000000100000000000300000000000000000,
100000000000000000100000000000000000200000200000,
100000000000100000100000000000000000000000000000,
100000000000000000100000000000000000200000200000,
100000000000000000100000000000000000200000200000,
500000000000000000000000000000000000000000000008,
000000000000000000000000000000000000100000100000,
100000000000200000200000000000000000100000100000,
100000000000200000200000000000000000000000000000,
100000100000200000000000100000000000200000000000,
100000100000200000000000200000000000100000100000,
100000000000200000200000000000000000100000100000,
100000000000200000200000000000000000000000000000,
100000100000100000200000100000100000100000000000,
500000000000000000000000000000000008000000000000,
300000000000000000200000200000000000200000000000,
100000000000100000100000000000200000200000000000,
100000100000000000100000000000200000200000000000,
100000000000100000100000200000100000200000100000,
000000000000000000200000200000000000200000000000,
100000000000100000100000000000200000200000000000,
100000100000000000100000000000200000200000000000,
100000100000200000100000200000100000200000100000,
000000100000100000000000000000000000000000000000,
100000100000100000200000200000100000200000100000,
000000100000100000000000000000000000000000000000,
#END
COURSE:Hard
LEVEL:3
SCOREINIT:1010
SCOREDIFF:270
#START
000000000000000000200000200000000000200000000000,
100000000000100000100000000000200000200000000000,
100000000000100000100000000000200000200000000000,
100000000000100000000000200000100000200000100000,
000000000000000000200000200000000000200000000000,
100000000000100000100000000000200000200000000000,
100000000000100000100000000000200000200000000000,
100000000000100000000000200000100000200000100000,
000000100000100000000000000000000000000000000000,
100000000000100000000000200000100000200000100000,
000000100000100000000000000000000000000000000000,
000000000000000000000000000000000000000000000000,
000000000000000000000000000000000000000000000000,
200000000000100000000000200000100000200000100000,
200000100000200000100000200000300000000000000000,
200000000000100000000000200000100000200000100000,
200000100000200000100000200000300000000000000000,
100000000000000000100000000000000000100000200000,
100000000000000000100000000000000000000000000000,
100000000000000000100000000000000000100000200000,
100000000000000000100000000000000000000000000000,
100000000000000000100000000000000000100000200000,
100000000000000000100000000000000000100000200000,
500000000000000000000000000000000000000000800000,
000000000000000000000000000000000000000000000000,
100000000000000000100000000000000000200000200000,
100000000000000000100000000000300000000000000000,
100000000000000000100000000000000000200000200000,
100000000000000000100000000000000000000000000000,
100000000000000000100000000000000000200000200000,
100000000000000000100000000000000000200000200000,
500000000000000000000000000000000000000000800000,
000000000000000000000000000000000000100000100000,
100000000000200000200000000000000000100000100000,
100000000000200000200000000000000000000000000000,
100000100000200000000000100000000000200000000000,
100000100000200000000000200000000000100000100000,
100000000000200000200000000000000000100000100000,
100000000000200000200000000000000000000000000000,
100000100000100000000000100000100000100000000000,
500000000000000000000000000000800000000000000000,
300000000000000000200000200000000000200000000000,
100000000000100000100000000000200000200000000000,
100000000000100000100000000000200000200000000000,
100000000000100000000000200000100000200000100000,
000000000000000000200000200000000000200000000000,
100000000000100000100000000000200000200000000000,
100000000000100000100000000000200000200000000000,
100000000000100000000000200000100000200000100000,
000000100000100000000000000000000000000000000000,
100000000000100000000000200000100000200000100000,
000000100000100000000000000000000000000000000000,
#END
COURSE:Normal
LEVEL:3
SCOREINIT:1300
SCOREDIFF:420
#START
000000000000000000000000200000000000200000000000,
100000000000100000100000000000000000000000000000,
100000000000100000100000000000000000000000000000,
100000000000100000000000200000000000200000000000,
000000000000000000000000200000000000200000000000,
100000000000100000100000000000000000000000000000,
100000000000100000100000000000000000000000000000,
100000000000100000000000200000000000200000000000,
100000000000100000000000000000000000000000000000,
100000000000100000000000200000000000200000000000,
100000000000300000000000000000000000000000000000,
100000000000000000000000100000000000000000000000,
100000000000100000000000200000000000000000000000,
100000000000200000000000100000000000000000000000,
100000000000200000000000400000000000000000000000,
100000000000200000000000100000000000000000000000,
100000000000200000000000300000000000000000000000,
100000000000000000100000000000000000100000100000,
100000000000000000100000000000000000000000000000,
100000000000000000100000000000000000100000100000,
100000000000000000100000000000000000000000000000,
100000000000000000100000000000000000100000100000,
100000000000000000100000000000000000100000000000,
500000000000000000000000000000000000000000800000,
000000000000000000000000000000000000000000000000,
100000000000000000100000000000000000100000100000,
100000000000000000100000000000000000000000000000,
100000000000000000100000000000000000100000100000,
100000000000000000100000000000000000200000000000,
100000000000000000100000000000000000100000100000,
100000000000000000100000000000000000100000000000,
500000000000000000000000000000000000000000800000,
000000000000000000000000000000000000100000000000,
100000000000000000200000000000000000100000000000,
100000000000000000200000000000000000000000000000,
100000000000100000000000200000000000200000000000,
100000000000000000000000000000000000100000000000,
100000000000000000200000000000000000100000000000,
100000000000000000200000000000000000000000000000,
100000000000100000000000200000000000200000000000,
500000000000000000000000000000800000000000000000,
300000000000000000000000200000000000200000000000,
100000000000100000100000000000000000000000000000,
100000000000100000100000000000000000000000000000,
100000000000100000000000200000000000200000000000,
000000000000000000000000200000000000200000000000,
100000000000100000100000000000000000000000000000,
100000000000100000100000000000000000000000000000,
100000000000200000000000100000000000200000000000,
100000000000300000000000000000000000000000000000,
100000000000200000000000100000000000200000000000,
100000000000300000000000000000000000000000000000,
#END
COURSE:Easy
LEVEL:2
SCOREINIT:1510
SCOREDIFF:750
#START
000000000000000000000000000000000000000000000000,
100000000000100000000000000000000000000000000000,
100000000000100000000000000000000000000000000000,
200000000000000000000000100000000000100000000000,
000000000000000000000000200000000000000000000000,
100000000000100000000000000000000000000000000000,
100000000000100000000000000000000000000000000000,
200000000000000000000000200000000000000000000000,
100000000000100000000000000000000000000000000000,
200000000000000000000000200000000000000000000000,
100000000000100000000000000000000000000000000000,
100000000000000000000000100000000000000000000000,
100000000000000000000000000000000000000000000000,
100000000000000000000000200000000000000000000000,
100000000000000000000000300000000000000000000000,
100000000000000000000000200000000000000000000000,
100000000000000000000000300000000000000000000000,
100000000000000000100000000000000000000000000000,
100000000000000000100000000000000000000000000000,
100000000000000000100000000000000000000000000000,
100000000000000000100000000000000000000000000000,
100000000000000000100000000000000000000000000000,
100000000000000000100000000000000000000000000000,
500000000000000000000000000000000000000000800000,
000000000000000000000000000000000000000000000000,
100000000000000000200000000000000000000000000000,
100000000000000000200000000000000000000000000000,
100000000000000000200000000000000000000000000000,
100000000000000000200000000000000000000000000000,
100000000000000000200000000000000000000000000000,
100000000000000000200000000000000000000000000000,
500000000000000000000000000000000000000000800000,
000000000000000000000000000000000000000000000000,
100000000000000000000000200000000000000000000000,
100000000000000000000000200000000000000000000000,
100000000000000000000000200000000000000000000000,
100000000000000000000000000000000000000000000000,
100000000000000000000000200000000000000000000000,
100000000000000000000000200000000000000000000000,
100000000000000000000000200000000000000000000000,
500000000000000000000000000000800000000000000000,
000000000000000000000000200000000000000000000000,
100000000000100000000000000000000000000000000000,
100000000000100000000000000000000000000000000000,
200000000000000000000000100000000000100000000000,
000000000000000000000000200000000000000000000000,
100000000000100000000000000000000000000000000000,
100000000000100000000000000000000000000000000000,
200000000000000000000000200000000000000000000000,
100000000000100000000000000000000000000000000000,
200000000000000000000000200000000000000000000000,
100000000000100000000000000000000000000000000000,
#END