453 lines
11 KiB
Plaintext
453 lines
11 KiB
Plaintext
//TJADB Project
|
|
TITLE:Nihon no Mikata -Nevada Kara Kimashita-
|
|
TITLEJA:ニホンノミカタ
|
|
SUBTITLE:--Yazima Beauty Salon
|
|
BPM:140
|
|
WAVE:Nihon no Mikata -Nevada Kara Kimashita-.ogg
|
|
OFFSET:-18.182
|
|
DEMOSTART:62.753
|
|
|
|
COURSE:Oni
|
|
LEVEL:7
|
|
SCOREINIT:650
|
|
SCOREDIFF:160
|
|
|
|
|
|
#START
|
|
|
|
|
|
100000200200100100200200100100200200100100200200,
|
|
000000300000000300000000300000000000400000000000,
|
|
|
|
#GOGOSTART
|
|
100000100000200000200200100000100100200000000000,
|
|
100100100000200000100100200000100100200100200000,
|
|
100000100000200000200200100000200200200000000000,
|
|
200000100100200000100100200000100100200100200000,
|
|
100000100000200000200200100000100100200000000000,
|
|
100100100000200000100100200000100100200100200000,
|
|
100000100000200000200200100000100100200000000000,
|
|
100100200000000000100100200000200200100100100000,
|
|
|
|
#GOGOEND
|
|
100000000000200000000000100000200000000000200000,
|
|
100000000000000000100000000000100000200000000000,
|
|
100000000000200000000000100000200000000000100000,
|
|
100000200200200000000000200200000100000200000000,
|
|
100000000000200000000000100000200000000000200000,
|
|
100000000000000000100000000000100000200000000000,
|
|
100000000000200000000000100000200000000000100000,
|
|
000000200000200000100000200100000200000000100000,
|
|
100000000000200000000100100000200000100000200000,
|
|
100000200200100200000000100200000000200200000000,
|
|
100000000000200000000100100000200000100000200000,
|
|
100000200200100200000000100200200000100200200000,
|
|
100000000000200000000100100000200000100000200000,
|
|
100000100000200000100000000000100000100000200000,
|
|
000200100100200200100100200200100100200200100100,
|
|
000000300000400000000000300000400000000000000000,
|
|
100000000100200000100100100000200000100000100100,
|
|
100000100000200000100000100200000000200200000000,
|
|
100000000100200000100100100000200000100000200000,
|
|
100000100000200000100000100200200000100200200000,
|
|
100000000100200000100100100000200000100000200000,
|
|
100000100000200000100000000000100000100000200000,
|
|
200000100100200000100100200000100100200000100100,
|
|
000000000000300000000000000000000000000000000000,
|
|
|
|
#GOGOSTART
|
|
100000000100200000100200100000000100200000100000,
|
|
000000100000200000100100100000100000200000100000,
|
|
100000000100200000100200100000000100200000100100,
|
|
100000000000200000100200100000100100200000000000,
|
|
100000000100200000100200100000000100200000100000,
|
|
000000100000200000100100100000100000200000100000,
|
|
100000000100200000100200100000000100200000100000,
|
|
100000000000200000100000100100200200100100200200,
|
|
100000000100200000100000200000200000100000200000,
|
|
100000000100200000100000200000200000100000200000,
|
|
200000000200100000200000200000200000100000200100,
|
|
100000100100200000100000200000200000100000100000,
|
|
100000000100200000100000200000200000100000200000,
|
|
100000100000100000100000100000100100200200100000,
|
|
400000300000000000400000300000000000400000300000,
|
|
000000400000300000000000100000200000100000200000,
|
|
100200100000000000200100200000000000100200100000,
|
|
000000200100200000000000000000000000000000000000,
|
|
|
|
#GOGOEND
|
|
|
|
|
|
#END
|
|
|
|
|
|
COURSE:Hard
|
|
LEVEL:6
|
|
SCOREINIT:650
|
|
SCOREDIFF:170
|
|
|
|
|
|
#START
|
|
|
|
|
|
500000000000000000000000000000000000000008000000,
|
|
0030030030000000,
|
|
|
|
#GOGOSTART
|
|
#SECTION
|
|
#BRANCHSTART r,12,16
|
|
#N
|
|
1000101110002000,
|
|
1010201000111000,
|
|
1000101110002000,
|
|
21202120,
|
|
1000101110002000,
|
|
1010201000111000,
|
|
1000101110002000,
|
|
1110001110000000,
|
|
|
|
#E
|
|
1000101110002000,
|
|
1010201000111000,
|
|
1000101110002000,
|
|
21202120,
|
|
1000101110002000,
|
|
1010201000111000,
|
|
1000101110002000,
|
|
1110001110000000,
|
|
|
|
#M
|
|
1010201110002000,
|
|
1110201000111020,
|
|
1010201110002000,
|
|
2010201020222000,
|
|
1010201110002000,
|
|
1110201000111020,
|
|
1010201110002000,
|
|
1110001110000000,
|
|
|
|
#GOGOEND
|
|
#SECTION
|
|
#BRANCHSTART p,75,90
|
|
#N
|
|
10201201,
|
|
10020000,
|
|
10201201,
|
|
0020200022020200,
|
|
10201201,
|
|
10020000,
|
|
10201201,
|
|
0020202011010000,
|
|
|
|
#E
|
|
10201201,
|
|
10020000,
|
|
10201201,
|
|
0020200022020200,
|
|
10201201,
|
|
10020000,
|
|
10201201,
|
|
0020202011010000,
|
|
|
|
#M
|
|
10201201,
|
|
10020000,
|
|
10201201,
|
|
1022200011020200,
|
|
10201201,
|
|
10020000,
|
|
10201201,
|
|
0020201011010000,
|
|
|
|
#SECTION
|
|
#BRANCHSTART p,75,90
|
|
#N
|
|
1000200110002000,
|
|
1020100110002000,
|
|
1000200110002000,
|
|
1020100110002000,
|
|
11201120,
|
|
11210121,
|
|
000000500000000000000000000000000000000008000000,
|
|
03303300,
|
|
|
|
#E
|
|
1000200110102000,
|
|
1020100110002000,
|
|
1000200110102000,
|
|
1020100110002000,
|
|
11201120,
|
|
11210121,
|
|
000000500000000000000000000000000000000008000000,
|
|
03303300,
|
|
|
|
#M
|
|
1010200110102000,
|
|
1020100110102000,
|
|
1010200110102000,
|
|
1020100110102000,
|
|
11221120,
|
|
11210121,
|
|
0010200110102010,
|
|
03303300,
|
|
|
|
#SECTION
|
|
#BRANCHSTART p,75,90
|
|
#N
|
|
1000200110002000,
|
|
1020100110002000,
|
|
1000200110002000,
|
|
1020100110002000,
|
|
11201120,
|
|
11210121,
|
|
500000000000000000000000000000000008000000000000,
|
|
0300,
|
|
|
|
#E
|
|
1000200110102000,
|
|
1020100110102000,
|
|
1000200110102000,
|
|
1020100110102000,
|
|
11201120,
|
|
11210121,
|
|
500000000000000000000000000000000008000000000000,
|
|
0300,
|
|
|
|
#M
|
|
1010200110102000,
|
|
1020100110102000,
|
|
1010200110102000,
|
|
1020100110102000,
|
|
11221120,
|
|
11210121,
|
|
1011101110111010,
|
|
0300,
|
|
|
|
#GOGOSTART
|
|
#SECTION
|
|
#BRANCHSTART p,75,90
|
|
#N
|
|
1001100010011000,
|
|
1001100010102000,
|
|
1001100010011000,
|
|
1000201110002000,
|
|
1001100010011000,
|
|
1001100010102000,
|
|
1001100010011000,
|
|
1000001110000000,
|
|
|
|
#E
|
|
1001102010011000,
|
|
1001102010102000,
|
|
1001102010011000,
|
|
1000201110002000,
|
|
1001102010011000,
|
|
1001101010102000,
|
|
1001102010000010,
|
|
1000001110000000,
|
|
|
|
#M
|
|
1001102010011020,
|
|
1001101110102010,
|
|
1001102010011020,
|
|
1000201110002000,
|
|
1001102010011020,
|
|
1001101110102010,
|
|
1001102010011020,
|
|
1000201110222000,
|
|
|
|
#SECTION
|
|
#BRANCHSTART p,75,90
|
|
#N
|
|
20202120,
|
|
21202120,
|
|
21202120,
|
|
1000201110102000,
|
|
10202101,
|
|
0111,
|
|
|
|
#E
|
|
20202120,
|
|
21202120,
|
|
21202120,
|
|
1000201110102000,
|
|
10202101,
|
|
0010101010111000,
|
|
|
|
#M
|
|
20202120,
|
|
21202120,
|
|
21202120,
|
|
1000201110102020,
|
|
10202101,
|
|
0010101010111000,
|
|
|
|
#SECTION
|
|
#BRANCHSTART p,75,90
|
|
#N
|
|
33044033,
|
|
04400000,
|
|
33044033,
|
|
04400000,
|
|
|
|
#E
|
|
33044033,
|
|
04400000,
|
|
33044033,
|
|
04400000,
|
|
|
|
#M
|
|
1110002220001110,
|
|
0022200010102000,
|
|
33044033,
|
|
04400000,
|
|
|
|
|
|
#END
|
|
|
|
|
|
COURSE:Normal
|
|
LEVEL:4
|
|
BALLOON:10,8
|
|
SCOREINIT:1190
|
|
SCOREDIFF:400
|
|
|
|
|
|
#START
|
|
|
|
|
|
700000000000000000000000000000000000000000000000,
|
|
800000000000000000000000000000000000000000000000,
|
|
#GOGOSTART
|
|
000000000000100000000000100000000000000000000000,
|
|
100000000000000000100000000000000000000000000000,
|
|
000000000000100000000000100000000000000000000000,
|
|
100000000000000000100000000000000000000000000000,
|
|
000000000000100000000000100000000000000000000000,
|
|
100000000000000000100000000000000000000000000000,
|
|
000000000000100000000000100000000000000000000000,
|
|
300000000000000000000000000000000000000000000000,
|
|
#GOGOEND
|
|
100000000000100000000000100000000000000000100000,
|
|
000000000000000000000000000000000000000000000000,
|
|
100000000000100000000000100000000000000000100000,
|
|
000000000000000000000000000000000000000000000000,
|
|
200000000000200000000000200000000000000000200000,
|
|
000000000000000000000000000000000000000000000000,
|
|
200000000000200000000000200000000000000000200000,
|
|
000000000000000000000000000000000000000000000000,
|
|
100000000000100000000000100000000000200000000000,
|
|
100000000000200000000000000000000000000000000000,
|
|
100000000000100000000000100000000000200000000000,
|
|
100000000000200000000000000000000000000000000000,
|
|
100000000000100000000000100000000000200000000000,
|
|
100000000000200000000000000000000000500000000000,
|
|
000000800000000000000000000000000000000000000000,
|
|
000000000000000000000000000000000000000000000000,
|
|
100000000000200000000000100000000000200000000000,
|
|
100000000000200000200000000000000000000000000000,
|
|
100000000000200000000000100000000000200000000000,
|
|
100000000000200000200000000000000000000000000000,
|
|
1212,
|
|
10100117,
|
|
0008,
|
|
0300,
|
|
|
|
#GOGOSTART
|
|
30003003,
|
|
00011010,
|
|
10201120,
|
|
10111000,
|
|
30003003,
|
|
0011,
|
|
10201120,
|
|
1,
|
|
000000000000200000000000000000000000200000000000,
|
|
100000000000200000000000000000000000200000000000,
|
|
100000000000200000000000000000000000200000000000,
|
|
100000000000000000000000000000000000000000000000,
|
|
000000000000000000000000100000000000000000000000,
|
|
000000000000100000000000100000000000100000000000,
|
|
300000000000000000300000000000000000300000000000,
|
|
000000300000000000000000000000000000000000000000,
|
|
300000000000000000300000000000000000300000000000,
|
|
000000300000000000000000000000000000000000000000,
|
|
|
|
#GOGOEND
|
|
|
|
|
|
#END
|
|
|
|
|
|
COURSE:Easy
|
|
LEVEL:3
|
|
BALLOON:8,4
|
|
SCOREINIT:910
|
|
SCOREDIFF:390
|
|
|
|
|
|
#START
|
|
|
|
|
|
700000000000000000000000000000000000000000000000,
|
|
000000000000800000000000000000000000000000000000,
|
|
#GOGOSTART
|
|
000000000000100000000000100000000000000000000000,
|
|
100000000000000000000000000000000000000000000000,
|
|
000000000000100000000000100000000000000000000000,
|
|
100000000000000000000000000000000000000000000000,
|
|
000000000000300000000000300000000000000000000000,
|
|
300000000000000000000000000000000000000000000000,
|
|
000000000000300000000000300000000000000000000000,
|
|
000000000000000000000000000000000000000000000000,
|
|
#GOGOEND
|
|
100000000000100000000000100000000000000000000000,
|
|
100000000000000000000000000000000000000000000000,
|
|
100000000000100000000000100000000000000000000000,
|
|
100000000000000000000000000000000000000000000000,
|
|
200000000000200000000000200000000000000000000000,
|
|
200000000000000000000000000000000000000000000000,
|
|
200000000000200000000000200000000000000000000000,
|
|
200000000000000000000000000000000000000000000000,
|
|
100000000000100000000000100000000000000000000000,
|
|
100000000000000000000000000000000000000000000000,
|
|
100000000000100000000000100000000000000000000000,
|
|
100000000000000000000000000000000000000000000000,
|
|
100000000000100000000000100000000000000000000000,
|
|
100000000000100000000000100000000000000000000000,
|
|
100000000000000000000000000000000000000000000000,
|
|
000000000000000000000000000000000000000000000000,
|
|
100000000000100000000000100000000000000000000000,
|
|
100000000000000000000000000000000000000000000000,
|
|
100000000000100000000000100000000000000000000000,
|
|
100000000000000000000000000000000000000000000000,
|
|
100000000000100000000000100000000000000000000000,
|
|
100000000000100000000000100000000000000000000000,
|
|
7,
|
|
8,
|
|
|
|
#GOGOSTART
|
|
300000000000000000000000300000000000000000000000,
|
|
300000000000000000000000100000000000100000000000,
|
|
100000000000000000000000100000000000000000000000,
|
|
200000000000000000000000200000000000000000000000,
|
|
300000000000000000000000300000000000000000000000,
|
|
300000000000000000000000100000000000100000000000,
|
|
100000000000000000000000100000000000000000000000,
|
|
500000000000000000000000000000000000800000000000,
|
|
000000000000000000000000000000000000000000000000,
|
|
200000000000200000000000200000000000000000000000,
|
|
100000000000000000000000000000000000000000000000,
|
|
100000000000000000000000000000000000000000000000,
|
|
100000000000000000000000100000000000000000000000,
|
|
200000000000200000000000200000000000000000000000,
|
|
300000000000000000300000000000000000300000000000,
|
|
000000300000000000000000000000000000000000000000,
|
|
300000000000000000300000000000000000300000000000,
|
|
000000300000000000000000000000000000000000000000,
|
|
#GOGOEND
|
|
|
|
|
|
#END
|
|
|