Files
ESE/01 Pop/PECORI NIGHT/PECORI NIGHT.tja
T
2023-06-15 19:15:39 -05:00

295 lines
11 KiB
Plaintext

//TJADB Project
TITLE:PECORI♥NIGHT
TITLEJA:PECORI NIGHT
SUBTITLE:--Gorie feat. Jasmine -Saturday Night Rendition-
BPM:159
WAVE:PECORI NIGHT.ogg
OFFSET:-2.792
DEMOSTART:49.584
COURSE:Oni
LEVEL:8
SCOREINIT:800
SCOREDIFF:150
#START
000000000000000000000000000000000000000000000000,
000000000000000000000000000000000000000000000000,
300000000000300000000000300000300000300000000000,
300000300000300000000000300000400000000000100100,
100000100000100000100100100100100000100000100100,
100100100000100000100100100000400000000000100100,
100000100000100000100100100100100000100000100100,
100100100000100000100100100000400000000000000000,
200000000000200000000000200200200000200000000000,
200200200000200000100100100000400000000000000000,
200000000000200000000000200200200000200000100100,
200000200000200200100000000000400000000000000000,
200000000000200000000000200200200000200000100100,
200000200000200200100000000000400000000000000000,
200000000000200000000000200200200000200000100100,
200000200000200200100000000000400000000000000000,
200000000000200000000000200200200000200000100100,
200000200000200200100000000000400000000000000000,
100000100000100000200000200000200200200000200000,
100000100100100000100000000000400000400000000000,
100000100100100000100000000000400000400000000000,
200000200200200000200000000000400000400000000000,
200000100000200000100000100000200200200000200000,
100000100100100000100000000000400000400000000000,
100000100100100000100000000000400000400000000000,
200000200200200000200000000000400000400000000000,
200000100000200000100000200000200000100000100000,
100000200200200000100000000000200200200000000000,
300000000000300000000000300000000000300000000000,
100000100000200000200000200000200200200000200000,
200000200200200000200000200000000000400000000000,
#GOGOSTART
300000300000300000000000400000400000400000000000,
100000100100200000100000200200100000200000100000,
100000100100200000100000100100200200200000000000,
100000200200200000100000100100200100200000000000,
300000300000300000000000400000400000400000000000,
100000100100200000100000200200100000200000100000,
100000100100200000100000100100200200200000000000,
100000200200200000100000100100200100200000100000,
100000100100200000100000100100200000100000100000,
000000200000200000200000200000100100100000100000,
000000100000100100200000200200100000100000100000,
000000200000200000200000200000100100100000100000,
000000100000100100200000100100200000100000100000,
000000200000200000200000200000100100100000100000,
000000100000100100200000100100100100100000000000,
#GOGOEND
300000000000300000000000400000400000400000000000,
300000000000300000000000000000400000000000000000,
200000100000200000100100200000200000200000100100,
200000200000200200100000000000400000000000000000,
300000000000300000000000400000400000400000000000,
300000000000300000000000000000400000000000000000,
200200100100200000100000100100200200200000100000,
100100200200100100200200100000100000400000000000,
#END
COURSE:Hard
LEVEL:5
BALLOON:5
SCOREINIT:630
SCOREDIFF:140
#START
000000000000000000000000000000000000000000000000,
000000000000000000000000000000000000000000000000,
300000000000300000000000300000300000300000000000,
300000300000300000000000300000400000000000000000,
300000000000300000000000300000300000300000000000,
300000300000300000000000300000400000000000000000,
100100100000100000000000100100100000100000000000,
100100100000100000000000000000400000000000000000,
200200200000200000000000200200200000200000000000,
200200200000200000000000000000400000000000000000,
300000000000300000000000400000400000400000000000,
300000000000300000000000000000400000000000000000,
300000000000300000000000400000400000400000000000,
300000000000300000000000000000400000000000000000,
100100100000100000000000200200200000200000000000,
100100100000100000100000000000400000000000000000,
100100100000100000000000200200200000200000000000,
100100100000100000100000000000400000000000000000,
100000100100100000100000000000400000400000000000,
200000200200200000200000000000400000400000000000,
100000100000100000100000000000400000400000000000,
200000200000200000200000000000400000400000000000,
200000100000200000100000200000000000100000000000,
100000100100100000100000000000400000400000000000,
100000100100100000100000000000400000400000000000,
200000200200200000200000000000400000400000000000,
200000100000200000100000200000000000100000000000,
100000100100100000100000000000200200200000000000,
300000000000300000000000300000000000300000000000,
900000000000000000000000000000000000000000000000,
000000000000000000000800000000000000400000000000,
#GOGOSTART
300000000000300000000000400000400000400000000000,
100000100000100000100000100000200200200000000000,
100000100100100000100000000000400000400000000000,
200000200200200000200000000000400000400000000000,
300000000000300000000000400000400000400000000000,
100000100000100000100000100000200200200000000000,
100000100100100000100000000000400000400000000000,
200000200200200000200000000000100000100000100000,
000000000000200000000000100000200000100000100000,
000000200000200000200000200000100100100000100000,
000000000000200000000000100000200000100000100000,
000000200000200000200000200000100100100000100000,
000000000000200000000000100000200000100100100000,
000000200000200000200000200000100100100000100000,
000000000000200000000000100100100100100000000000,
#GOGOEND
300000000000300000000000400000400000400000000000,
300000000000300000000000000000400000000000000000,
300000000000300000000000400000400000400000000000,
300000000000300000000000000000400000000000000000,
300000000000300000000000400000400000400000000000,
300000000000300000000000000000400000000000000000,
300000000000300000000000400000400000400000000000,
300000000000300000000000000000400000000000000000,
#END
COURSE:Normal
LEVEL:4
BALLOON:6,6,5
SCOREINIT:720
SCOREDIFF:220
#START
000000000000000000000000000000000000000000000000,
000000000000000000000000000000000000000000000000,
100000000000100000000000100000100000100000000000,
100000100000100000000000000000300000000000000000,
100000000000100000000000100000100000100000000000,
100000100000100000000000000000300000000000000000,
200000000000200000000000200000200000200000000000,
200000200000200000000000000000300000000000000000,
200000000000200000000000200000200000200000000000,
200000200000200000000000000000300000000000000000,
100000000000100000000000200000200000200000000000,
100000100000100000000000000000300000000000000000,
100000000000100000000000200000200000200000000000,
100000100000100000000000000000300000000000000000,
100000000000100000000000200000200000200000000000,
100000100000100000000000000000300000000000000000,
100000000000100000000000200000200000200000000000,
100000100000100000000000000000300000000000000000,
100000000000100000100000000000000000200000000000,
100000100000000000100000000000000000000000000000,
100000100000100000100000000000000000000000000000,
200000200000200000200000000000000000000000000000,
100000000000100000100000000000000000200000000000,
100000100000000000100000000000000000000000000000,
100000100000100000100000000000000000000000000000,
200000200000200000200000000000000000000000000000,
200000000000200000000000200000000000200000000000,
100000000000000000200000200000000000000000000000,
100000000000100000000000100000000000100000000000,
900000000000000000000000000000000000000000000000,
000000000000000000800000000000000000400000000000,
#GOGOSTART
300000000000300000000000400000000000400000000000,
100000000000100000000000100000100000000000000000,
100000100000100000100000000000000000000000000000,
200000200000200000200000000000000000000000000000,
300000000000300000000000400000000000400000000000,
100000000000100000000000100000100000000000000000,
100000100000100000100000000000000000000000000000,
200000200000200000200000000000000000000000000000,
500000000000000000000000000000000000800000000000,
000000200000200000200000200000000000000000000000,
700000000000000000000000000000000000800000000000,
000000200000200000200000200000000000000000000000,
500000000000000000000000000000000000800000000000,
000000200000200000200000200000000000000000000000,
700000000000000000000000000000800000000000000000,
#GOGOEND
100000000000100000000000200000200000200000000000,
100000000000100000000000000000300000000000000000,
100000000000100000000000200000200000200000000000,
100000000000100000000000000000300000000000000000,
100000000000100000000000200000200000200000000000,
100000000000100000000000000000300000000000000000,
100000000000100000000000200000200000200000000000,
100000000000100000000000000000300000000000000000,
#END
COURSE:Easy
LEVEL:3
BALLOON:5
SCOREINIT:620
SCOREDIFF:300
#START
#SCROLL 0.8
000000000000000000000000000000000000000000000000,
000000000000000000000000000000000000000000000000,
100000000000000000000000100000000000000000000000,
100000000000100000000000000000300000000000000000,
100000000000000000000000100000000000000000000000,
100000000000100000000000000000300000000000000000,
200000000000000000000000200000000000000000000000,
200000000000200000000000000000400000000000000000,
200000000000000000000000200000000000000000000000,
200000000000200000000000000000400000000000000000,
100000000000000000000000100000000000000000000000,
100000000000100000000000000000300000000000000000,
100000000000000000000000100000000000000000000000,
100000000000100000000000000000300000000000000000,
200000000000000000000000200000000000000000000000,
200000000000200000000000000000400000000000000000,
200000000000000000000000200000000000000000000000,
200000000000200000000000000000400000000000000000,
100000000000000000000000100000000000000000000000,
100000000000100000000000100000000000000000000000,
100000000000100000000000100000000000000000000000,
100000000000100000000000100000000000000000000000,
100000000000000000000000100000000000000000000000,
100000000000100000000000100000000000000000000000,
100000000000100000000000100000000000000000000000,
200000000000200000000000200000000000000000000000,
200000000000000000000000200000000000000000000000,
100000000000000000000000000000000000000000000000,
100000000000100000000000100000000000100000000000,
900000000000000000000000000000000000000000000000,
000000000000000000800000000000000000000000000000,
#GOGOSTART
300000000000000000000000400000000000000000000000,
100000000000000000000000100000000000000000000000,
100000000000100000000000100000000000000000000000,
100000000000100000000000100000000000000000000000,
300000000000000000000000400000000000000000000000,
100000000000000000000000100000000000000000000000,
100000000000100000000000100000000000000000000000,
100000000000100000000000100000000000000000000000,
500000000000000000000000000000000000800000000000,
000000000000100000000000000000000000100000000000,
500000000000000000000000000000000000800000000000,
000000000000200000000000000000000000200000000000,
500000000000000000000000000000000000800000000000,
000000000000100000000000000000000000100000000000,
500000000000000000000000000000800000000000000000,
#GOGOEND
100000000000000000000000100000000000000000000000,
100000000000100000000000000000300000000000000000,
100000000000000000000000100000000000000000000000,
100000000000100000000000000000300000000000000000,
200000000000000000000000200000000000000000000000,
200000000000200000000000000000400000000000000000,
200000000000000000000000200000000000000000000000,
200000000000200000000000000000400000000000000000,
#END