Files
ESE/01 Pop/PIECES OF A DREAM/PIECES OF A DREAM.tja
T
2023-06-15 19:05:10 -05:00

263 lines
10 KiB
Plaintext

//TJADB Project
TITLE:PIECES OF A DREAM
TITLEJA:PIECES OF A DREAM
SUBTITLE:--CHEMISTRY/ReLIFE
BPM:105
WAVE:PIECES OF A DREAM.ogg
OFFSET:-3.160
DEMOSTART:76.302
COURSE:Oni
LEVEL:5
BALLOON:14
#START
300000000000100100000100100000000000100000000000,
000000000000100100000100100000000000200000000000,
000000000000100100000100100000000000100000000000,
000000000000100100000100100000000000200000000000,
100000100000100100000100100000000000100000000000,
100000100000100100000100100000000000200000000000,
100000100000100100000100100000000000100000000000,
100000000000100000000000100000000000100000000000,
300000000000000000000100100000000000200000000000,
100000000000000000000100100000000000200000000000,
100000000000000000000100100000000000200000000000,
100000000000000000000100100000000000200200100100,
100000000000000000000100100000000000200000000000,
100000000000200000000100100000000000200000000000,
100000000000000000000100100000000000200000000000,
100000000000200000000100100000000000100100200200,
100000000000000000000100100000000000200000000000,
100000000000000000000100100000000000200000000000,
100000000000000000000100100000000000200000000000,
100000000000000000000100100000000000200200100100,
100000000000000000000100100000000000200000000000,
100000000000200000000100100000000000200000000000,
100000000000000000000100100000000000200000000000,
100000000000200000000500000000000000000008000000,
100000100000100100000100100000000000100000200000,
100000100000100100000100100000200000000000200000,
100000100000100100000100100000000000100000200000,
100000100000100100000100100100200200100100200200,
100000000100000000100000100000000000200000000000,
100000000100000000100000100000000000200200100100,
100000000100000000100000100000000000200000000000,
100000000000100000000000100000000000100000000000,
300000000000000000000000100000100000100000100000,
100000000100000000100000300000000000100000100000,
100000000100000000100000100000100000100000100000,
100000000100000000100000300000200200100100100000,
100000000100000000100000100000000000000000100000,
100000000100000000100000100000000000000000000000,
100000000100000000100000100000100000100000100000,
500000000000000000000008000000000000100100100000,
300000000000000000000000100000100000100000100000,
100000000100000000100000300000000000200000000000,
100000000100000000100000100000100000100000100000,
100000000100000000100000300000000000200200100100,
100000000100000000100000100000000000100100200200,
100000000100000000100000100000000000200200100100,
700000000000000000000000000000000000800000000000,
100000000100000000100000100000000000200000000000,
300000000000000000000000000000000000000000000000,
#END
COURSE:Hard
LEVEL:2
BALLOON:14
SCOREINIT:360
SCOREDIFF:90
#START
300000000000100100000100100000000000100000000000,
000000000000100100000100100000000000200000000000,
000000000000100100000100100000000000100000000000,
000000000000100100000100100000000000200000000000,
100000100000100100000100100000000000100000000000,
100000100000100100000100100000000000200000000000,
100000100000100100000100100000000000100000000000,
100000000000100000000000100000000000100000000000,
300000000000000000000100100000000000200000000000,
100000000000000000000100100000000000200000000000,
100000000000000000000100100000000000200000000000,
100000000000000000000100100000000000200200100100,
100000000000000000000100100000000000200000000000,
100000000000200000000100100000000000200000000000,
100000000000000000000100100000000000200000000000,
100000000000200000000100100000000000100100200200,
100000000000000000000100100000000000200000000000,
100000000000000000000100100000000000200000000000,
100000000000000000000100100000000000200000000000,
100000000000000000000100100000000000200200100100,
100000000000000000000100100000000000200000000000,
100000000000200000000100100000000000200000000000,
100000000000000000000100100000000000200000000000,
100000000000200000000500000000000000000800000000,
100000100000100100000100100000000000100000200000,
100000100000100100000100100000200000000000200000,
100000100000100100000100100000000000100000200000,
100000100000100100000100100100200200100100200200,
100000000100000000100000100000000000200000000000,
100000000100000000100000100000000000200200100100,
100000000100000000100000100000000000200000000000,
100000000000100000000000100000000000100000000000,
300000000000000000000000100000100000100000100000,
100000000100000000100000300000000000100000100000,
100000000100000000100000100000100000100000100000,
100000000100000000100000300000200200100100100000,
100000000100000000100000100000000000000000100000,
100000000100000000100000100000000000000000000000,
100000000100000000100000100000100000100000100000,
500000000000000000000800000000000000100100100100,
300000000000000000000000100000100000100000100000,
100000000100000000100000300000000000200000000000,
100000000100000000100000100000100000100000100000,
100000000100000000100000300000000000200200100100,
100000000100000000100000100000000000100100200200,
100000000100000000100000100000000000200200100100,
700000000000000000000000000000000000000000800000,
100000000100000000100000100000000000200000000000,
300000000000000000000000000000000000000000000000,
#END
COURSE:Normal
LEVEL:3
BALLOON:5,5
SCOREINIT:1020
SCOREDIFF:290
#START
100000000000000000000000100000000000200000000000,
100000000000000000000000100000000000100000000000,
100000000000000000000000100000000000200000000000,
100000000000000000000000100000000000100000000000,
100000000000000000000000100000000000200000000000,
100000000000000000000000100000000000100000000000,
100000000000000000000000100000000000200000000000,
100000000000100000000000100000000000100000000000,
300000000000000000000000100000000000200000000000,
100000000000000000000000100000000000100000000000,
100000000000000000000000100000000000200000000000,
100000000000100000000000100000000000100000000000,
300000000000000000000000100000000000200000000000,
100000000000000000000000100000000000100000000000,
100000000000000000000000100000000000200000000000,
100000000000100000000000100000000000100000000000,
300000000000000000000000100000000000200000000000,
100000000000000000000000100000000000100000000000,
100000000000000000000000100000000000200000000000,
100000000000100000000000100000000000100000000000,
300000000000000000000000100000000000200000000000,
100000000000000000000000100000000000100000000000,
100000000000000000000000100000000000200000000000,
100000000000100000000000700000000000000800000000,
300000000000000000000000000000000000000000100000,
100000000100000000100000000000100000100000100000,
300000000000000000000000000000000000100000100000,
100000000100000000100000000000100000100000100000,
300000000000000000000000000000000000100000000000,
100000000000000000000000000000000000100000000000,
100000000000200000000000100000000000200000000000,
100000000000100000000000100000000000100000000000,
300000000000000000000000100000100000100000100000,
100000000100000000100000300000000000100000100000,
100000000100000000100000100000100000100000100000,
100000000100000000100000400000000000000000100000,
100000000100000000100000100000000000000000100000,
100000000100000000100000100000000000000000000000,
100000000100000000100000100000100000100000100000,
500000000000000000000800000000000000000000000000,
300000000000000000000000100000100000100000100000,
100000000100000000100000300000000000100000100000,
100000000100000000100000100000100000100000100000,
100000000100000000100000400000000000000000100000,
100000000100000000100000100000000000000000100000,
100000000100000000100000100000000000000000000000,
700000000000000000000800000000000000100000100000,
100000000000000000000000100000000000000000000000,
300000000000000000000000000000000000000000000000,
#END
COURSE:Easy
LEVEL:3
BALLOON:5
SCOREINIT:910
SCOREDIFF:290
#START
100000000000000000000000100000000000000000000000,
100000000000000000000000100000000000100000000000,
100000000000000000000000100000000000000000000000,
100000000000000000000000100000000000100000000000,
100000000000000000000000100000000000200000000000,
100000000000000000000000100000000000100000000000,
100000000000000000000000100000000000200000000000,
100000000000100000000000100000000000100000000000,
300000000000000000000000100000000000200000000000,
100000000000000000000000100000000000100000000000,
100000000000000000000000100000000000200000000000,
100000000000100000000000100000000000100000000000,
300000000000000000000000100000000000200000000000,
100000000000000000000000100000000000100000000000,
100000000000000000000000100000000000200000000000,
100000000000100000000000100000000000100000000000,
300000000000000000000000100000000000200000000000,
100000000000000000000000100000000000100000000000,
100000000000000000000000100000000000200000000000,
100000000000100000000000100000000000100000000000,
300000000000000000000000100000000000200000000000,
100000000000000000000000100000000000100000000000,
100000000000000000000000100000000000200000000000,
100000000000100000000000100000000000000000000000,
300000000000000000000000000000000000000000000000,
100000000000000000100000000000100000100000100000,
300000000000000000000000000000000000000000000000,
100000000000000000100000000000100000100000100000,
300000000000000000000000000000000000100000000000,
100000000000000000000000000000000000100000000000,
100000000000000000000000100000000000000000000000,
100000000000100000000000100000000000100000000000,
300000000000000000000000100000100000100000100000,
100000000000000000000000200000000000000000000000,
100000000000000000000000100000100000100000100000,
100000000000000000000000200000000000000000100000,
100000000000000000100000100000000000000000100000,
100000000000000000100000100000000000000000000000,
100000000000000000000000100000000000100000000000,
500000000000000000800000000000000000000000000000,
300000000000000000000000100000100000100000100000,
100000000000000000000000200000000000000000000000,
100000000000000000000000100000100000100000100000,
100000000000000000000000200000000000000000100000,
100000000000000000000000100000000000000000100000,
100000000000000000000000100000000000100000000000,
700000000000000000800000000000000000100000100000,
100000000000000000000000100000000000000000000000,
300000000000000000000000000000000000000000000000,
#END