443 lines
8.0 KiB
Plaintext
443 lines
8.0 KiB
Plaintext
//TJADB Project
|
|
TITLE:POP STAR
|
|
TITLEJA:POP STAR
|
|
SUBTITLE:--Ken Hirai & Seiji Kameda/Dangerous Beauty
|
|
SUBTITLEJA:平井堅
|
|
BPM:140
|
|
WAVE:POP STAR.ogg
|
|
OFFSET:-2.030
|
|
DEMOSTART:72.931
|
|
|
|
COURSE:Oni
|
|
LEVEL:7
|
|
BALLOON:30,30,30
|
|
SCOREINIT:560
|
|
SCOREDIFF:150
|
|
NOTESDESIGNER3:Kijikiji
|
|
|
|
|
|
#START
|
|
|
|
|
|
1100,
|
|
1,
|
|
11,
|
|
1022,
|
|
3320,
|
|
32,
|
|
10210201,
|
|
00300000,
|
|
1020101111102010,
|
|
1020101111102020,
|
|
1020101111102020,
|
|
1020101000102022,
|
|
1020101111102010,
|
|
1020101111102020,
|
|
1020101111102050,
|
|
000000000000000000000000000000000008000000000000,
|
|
,
|
|
|
|
#SECTION
|
|
#BRANCHSTART p,75,90
|
|
#N
|
|
1010201110102010,
|
|
0010201110201020,
|
|
1010201110102010,
|
|
0010201111102010,
|
|
0010201111102020,
|
|
0010201110102000,
|
|
10110101,
|
|
0400,
|
|
|
|
#E
|
|
1010202210102010,
|
|
0010201110201020,
|
|
1010202210102010,
|
|
0010201122102010,
|
|
0010201122102020,
|
|
0010201110102000,
|
|
10110101,
|
|
00401212,
|
|
|
|
#M
|
|
1110202211102010,
|
|
0010201210201020,
|
|
1110202211102010,
|
|
0010201122102010,
|
|
0011201122102020,
|
|
0011201110102000,
|
|
10110101,
|
|
00401212,
|
|
|
|
#SECTION
|
|
#BRANCHSTART p,75,90
|
|
#N
|
|
1010201110102010,
|
|
0010201110201020,
|
|
1010201110102010,
|
|
0010201111102010,
|
|
0010201111102020,
|
|
0010201110102000,
|
|
10110100,
|
|
500000000000000008000000000000000000000000000000,
|
|
|
|
#E
|
|
1010202210102010,
|
|
0010201110201020,
|
|
1010202210102010,
|
|
0010201122102010,
|
|
0010201122102020,
|
|
0010201110102000,
|
|
10110100,
|
|
500000000000000008000000000000000000000000000000,
|
|
|
|
#M
|
|
1010202211102010,
|
|
0010201210201020,
|
|
1010202211102010,
|
|
0010201122102010,
|
|
0011201122102020,
|
|
0011201110102000,
|
|
10110100,
|
|
500000000000000008000000000000000000000000000000,
|
|
|
|
#SECTION
|
|
#BRANCHSTART p,75,90
|
|
#N
|
|
1010201210102000,
|
|
1010201212102000,
|
|
1010201210102000,
|
|
1010201212102020,
|
|
1010202210102020,
|
|
1010202211102000,
|
|
1011101110112210,
|
|
100000100000200000500000000000000008000000000000,
|
|
|
|
#E
|
|
1010201210102011,
|
|
1010201212102022,
|
|
1010201210102011,
|
|
1010201212102220,
|
|
1010202210102022,
|
|
1010202211102020,
|
|
1011201120112210,
|
|
100000100000200000500000000000000008000000000000,
|
|
|
|
#M
|
|
1010201211102011,
|
|
1010201212102022,
|
|
1010201211102011,
|
|
1010201212102220,
|
|
1010202210102022,
|
|
1110202211102020,
|
|
1011202210112211,
|
|
100000100000200000500000000000000008000000000000,
|
|
|
|
#GOGOSTART
|
|
#SECTION
|
|
#BRANCHSTART p,75,90
|
|
#N
|
|
3000001020102220,
|
|
1011102011102010,
|
|
1011201011112020,
|
|
1011201110112011,
|
|
1011201020102022,
|
|
1011102011102010,
|
|
1011201011112020,
|
|
1011201110112011,
|
|
1022201020102222,
|
|
1011102011102010,
|
|
1011201011112020,
|
|
1011201110112011,
|
|
1011201020102022,
|
|
1011102011102010,
|
|
1011201011112020,
|
|
30430403,
|
|
0300,
|
|
7,
|
|
00000008,
|
|
|
|
#E
|
|
3000001020102220,
|
|
1011102011112010,
|
|
1011201111112020,
|
|
1011202210112022,
|
|
1011201020102022,
|
|
1011102011112010,
|
|
1011201111112020,
|
|
1011202210112022,
|
|
1022201020102222,
|
|
1011102011112010,
|
|
1011201111112010,
|
|
1011202210112022,
|
|
1011201020102022,
|
|
1011102011112010,
|
|
1011201111112020,
|
|
30430403,
|
|
0300,
|
|
7,
|
|
00000008,
|
|
|
|
#M
|
|
3000001020102220,
|
|
1011102011212010,
|
|
1011201111212020,
|
|
1011202210112022,
|
|
1011201020102022,
|
|
1011102011212010,
|
|
1011201111212020,
|
|
1011202210112022,
|
|
1022201022102222,
|
|
1011102011212010,
|
|
1011201111212020,
|
|
1011202210112022,
|
|
1011201020102022,
|
|
1011102011212010,
|
|
1011201111212020,
|
|
30430403,
|
|
01300000,
|
|
7,
|
|
00000008,
|
|
|
|
#BRANCHEND
|
|
#GOGOEND
|
|
|
|
|
|
#END
|
|
|
|
|
|
COURSE:Hard
|
|
LEVEL:4
|
|
BALLOON:26
|
|
SCOREINIT:740
|
|
SCOREDIFF:180
|
|
|
|
|
|
#START
|
|
|
|
|
|
1100,
|
|
1,
|
|
11,
|
|
1022,
|
|
1120,
|
|
12,
|
|
10210201,
|
|
0300,
|
|
1000100011102000,
|
|
1000200011102000,
|
|
1000100011102000,
|
|
10210200,
|
|
1000100011102000,
|
|
1000200011102000,
|
|
1000100011102000,
|
|
500000000000000000000000000000000000000000000008,
|
|
,
|
|
1000101110100010,
|
|
02202020,
|
|
1000101110100020,
|
|
,
|
|
11201110,
|
|
11201020,
|
|
10110101,
|
|
0400,
|
|
1000101110100010,
|
|
0220202,
|
|
1000101110100020,
|
|
,
|
|
11201110,
|
|
11201020,
|
|
10110100,
|
|
500000000000000008000000000000000000000000000000,
|
|
1000101110102000,
|
|
1000101110202000,
|
|
1000101110102000,
|
|
1000101110202000,
|
|
11201120,
|
|
11221120,
|
|
1011101110101000,
|
|
500000000000000000000000000000000008000000000000,
|
|
|
|
#GOGOSTART
|
|
30011220,
|
|
10101120,
|
|
1000200011102000,
|
|
1010200011102020,
|
|
10012120,
|
|
10101120,
|
|
1000200011102000,
|
|
1010200011102020,
|
|
10011220,
|
|
3000300011102000,
|
|
1010200011102000,
|
|
1010200011102020,
|
|
10012120,
|
|
3000400011102000,
|
|
1010200011102020,
|
|
10210201,
|
|
0300,
|
|
9,
|
|
000000000000000000000000000000000000000000000008,
|
|
|
|
#GOGOEND
|
|
|
|
|
|
#END
|
|
|
|
|
|
COURSE:Normal
|
|
LEVEL:3
|
|
BALLOON:5,18
|
|
SCOREINIT:1020
|
|
SCOREDIFF:290
|
|
|
|
|
|
#START
|
|
|
|
|
|
100000000000100000000000000000000000000000000000,
|
|
100000000000000000000000000000000000000000000000,
|
|
100000000000000000000000100000000000000000000000,
|
|
100000000000000000000000200000000000200000000000,
|
|
100000000000100000000000200000000000000000000000,
|
|
100000000000000000000000200000000000000000000000,
|
|
700000000000000000000000000000000000800000000000,
|
|
000000000000300000000000000000000000000000000000,
|
|
100000000000100000000000100000000000000000000000,
|
|
100000000000000000000000200000000000000000000000,
|
|
100000000000100000000000100000000000000000000000,
|
|
100000000000000000000000000000000000000000000000,
|
|
100000000000100000000000100000000000000000000000,
|
|
100000000000000000000000200000000000000000000000,
|
|
100000000000100000000000100000000000000000000000,
|
|
500000000000000000000000800000000000000000000000,
|
|
000000000000000000000000000000000000000000000000,
|
|
100000000000100000000000100000000000000000100000,
|
|
000000000000000000000000000000000000000000000000,
|
|
100000000000100000000000100000000000000000200000,
|
|
000000000000000000000000000000000000000000000000,
|
|
100000100000100000000000000000000000000000000000,
|
|
200000200000200000000000000000000000000000000000,
|
|
100000000000100000000000100000000000000000100000,
|
|
000000000000400000000000000000000000000000000000,
|
|
100000000000100000000000100000000000000000100000,
|
|
000000000000000000000000000000000000000000000000,
|
|
100000000000100000000000100000000000000000200000,
|
|
000000000000000000000000000000000000000000000000,
|
|
100000100000100000000000000000000000000000000000,
|
|
200000200000200000000000000000000000000000000000,
|
|
100000000000100000000000100000000000000000000000,
|
|
500000000000800000000000000000000000000000000000,
|
|
100000000000100000000000100000100000000000000000,
|
|
100000000000000000000000200000000000000000000000,
|
|
100000000000100000000000100000100000000000000000,
|
|
100000000000000000000000200000000000000000000000,
|
|
100000100000000000000000100000000000000000000000,
|
|
100000100000000000000000100000000000000000000000,
|
|
100000000000200000000000100000000000200000000000,
|
|
500000000000000000000000800000000000000000000000,
|
|
#GOGOSTART
|
|
300000000000000000000000000000000000000000000000,
|
|
100000000000100000000000100000100000100000000000,
|
|
100000000000000000000000200000000000000000000000,
|
|
100000000000200000000000100000000000200000000000,
|
|
100000000000000000000000000000000000000000000000,
|
|
100000000000100000000000100000100000100000000000,
|
|
100000000000000000000000400000000000000000000000,
|
|
100000000000200000000000100000000000200000000000,
|
|
100000000000000000000000200000000000200000000000,
|
|
300000000000300000000000100000100000100000000000,
|
|
100000000000000000000000200000000000000000000000,
|
|
100000000000200000000000100000000000200000000000,
|
|
100000000000000000000000200000000000200000000000,
|
|
300000000000300000000000100000100000100000000000,
|
|
100000000000000000000000400000000000000000000000,
|
|
600000000000000000000000000000000000800000000000,
|
|
000000000000300000000000000000000000000000000000,
|
|
900000000000000000000000000000000000000000000000,
|
|
000000000000000000000000000000000000000000000008,
|
|
#GOGOEND
|
|
|
|
|
|
#END
|
|
|
|
|
|
COURSE:Easy
|
|
LEVEL:3
|
|
BALLOON:5,12
|
|
SCOREINIT:970
|
|
SCOREDIFF:330
|
|
|
|
|
|
#START
|
|
|
|
|
|
1,
|
|
1,
|
|
11,
|
|
1,
|
|
1100,
|
|
12,
|
|
7008,
|
|
0300,
|
|
11,
|
|
12,
|
|
11,
|
|
1,
|
|
11,
|
|
12,
|
|
11,
|
|
500000000000000000000000000000000008000000000000,
|
|
,
|
|
10001001,
|
|
,
|
|
10001002,
|
|
,
|
|
1100,
|
|
2200,
|
|
10001001,
|
|
0400,
|
|
10001001,
|
|
,
|
|
10001002,
|
|
,
|
|
1100,
|
|
2200,
|
|
11,
|
|
500000000000000008000000000000000000000000000000,
|
|
10001100,
|
|
11,
|
|
10001100,
|
|
12,
|
|
11000000,
|
|
11000000,
|
|
1111,
|
|
500000000000000000000000000008000000000000000000,
|
|
|
|
#GOGOSTART
|
|
3,
|
|
1100,
|
|
12,
|
|
1111,
|
|
1,
|
|
1100,
|
|
12,
|
|
1111,
|
|
1,
|
|
3300,
|
|
12,
|
|
1111,
|
|
1,
|
|
3300,
|
|
14,
|
|
600000000000000000000000000000000000000008000000,
|
|
0300,
|
|
9,
|
|
000000000000000000000000000000000000000000000008,
|
|
|
|
#GOGOEND
|
|
|
|
|
|
#END
|
|
|