Files
ESE/01 Pop/Paradise Ginga/Paradise Ginga.tja
T
2023-06-15 19:15:39 -05:00

371 lines
16 KiB
Plaintext

//TJADB Project
TITLE:Paradise Ginga
TITLEJA:パラダイス銀河
SUBTITLE:--Hikaru GENJI
BPM:155
WAVE:Paradise Ginga.ogg
OFFSET:-3.337
DEMOSTART:5.043
COURSE:Oni
LEVEL:7
BALLOON:10,25,10,11,10,10
#START
000000000000000000000000000000000000000000000000,
000000300000000000200200100000200000100000200000,
100000200000200000200200100000100000200200100000,
000000200000200000000000100000100000200200100000,
000000200000200200100000100000100000200200100000,
000000200000200000000000100000100000200200100000,
000000200000200000000000100000100000200200100000,
000000200000200000000000100000100000200000700000,
000000000000000000000000000000000000000000800000,
000000300000000000200200100000200000100000200000,
100000200000200000200200100000100000200200100000,
000000200000200000000000100000100000200200100000,
000000200000200200100000100000100000200200100000,
000000200000200000000000100000100000200200100000,
000000200000200000000000100000100000200200100000,
000000200000200000000000100000100000200000000000,
100000200000100000100000200000100000000000700000,
000000000000000000000000000000000000000000000000,
000000000000000000000000000000000000800000000000,
000000000000000000100100100000200200200200200000,
000000000000100000000000100000100000100000200000,
100000000000000000100000200000100000000000100000,
200000100000000000100200200000100000000000000000,
100000200000100000100000200200100000200000100000,
000000000000200000100000200000100000200000000000,
200000000000000000100000200000100000000000100000,
200000100000000000100200200000100000000000000000,
100000200000100000100000200200100000200000100000,
000000000000000000000000100000200000000000000000,
000000000000100000200000100000100000000000500000,
000000000000000000000008000000000000100000100000,
100000100000200200200000100000100000200200200000,
100000100000200200200000100000100000200000000000,
100000000000000000100000200000100000000000100000,
200000100000000000100200200000100000000000000000,
100000200000100000100000200200100000200000100000,
000000000000200000100000200000100000200000000000,
200000000000000000100000200000100000000000100000,
200000100000000000100200200000100000000000000000,
100000200000100000100000200200100000200000100000,
000000000000000000000000100000200000000000000000,
000000000000100000200000100000100000000000500000,
000000000000000000000008000000000000100000100000,
100000100000200200200000100000100000200200200000,
100000100000200000000000100000100000200000700000,
100000000000000000000000000000000000000000800000,
200000000000200200200000000000300000000000000000,
000000000000100000200200200000100000100000200000,
100000200200200000100000100000200200200000000000,
100000200200100000100000000000000000200000200000,
000000000000200000200000000000200000200000200000,
200000000000100000200200200000100000100000200000,
100000200200200000100000100000200200200000000000,
100000200200100000100000000000000000200000200000,
100000100000200200200000100000200000000000700000,
100100000000000000000000000000000000000000000000,
800000000000200000200000000000200000200000000000,
500000000000000000000000000000000008000000000000,
300000000000000000200200100000200000100000200000,
100000200000200000200200100000100000200200100000,
000000200000200000000000100000100000200200100000,
000000200000200200100000100000100000200200100000,
000000200000200000000000100000100000200200100000,
000000200000200000000000100000100000200200100000,
000000200000200000000000100000100000200000700000,
000000000000000000000000000000000000000000800000,
000000300000000000200200100000200000100000200000,
100000200000200000200200100000100000200200100000,
000000200000200000000000100000100000200200100000,
000000200000200200100000100000100000200200100000,
000000200000200000000000100000100000200200100000,
000000200000200000000000100000100000200200100000,
000000200000200000000000100000100000200000000000,
100000200000100000100000200000100000000000700000,
000000000000000000000000000000000000000000000008,
#END
COURSE:Hard
LEVEL:5
BALLOON:8,20,8,12,8,10
SCOREINIT:750
SCOREDIFF:180
#START
000000000000000000000000000000000000000000000000,
000000300000000000000000100000000000100000000000,
100000000000200000000000100000100000200000100000,
000000000000200000000000100000100000200000100000,
000000000000200000000000100000100000200000100000,
000000000000200000000000100000100000200000100000,
000000000000200000000000100000100000200000100000,
000000000000200000000000100000100000200000700000,
000000000000000000000000000000000000000000000000,
000000800000000000000000000000800000000000000000,
000000300000000000000000100000000000100000000000,
100000000000200000000000100000100000200000100000,
000000000000200000000000100000100000200000100000,
000000000000200000100000100000100000200000100000,
000000000000200000000000100000100000200000500000,
000000000000800000000000100000000000100000100000,
000000000000100000200000000000000000200000000000,
100000000000100000100000000000100000000000700000,
000000000000000000000000000000000000000000000000,
000000200000000000000000000000000000000000000000,
000000000000000000000000000000800000000000000000,
000000000000000000100100100000100000200200200000,
000000000000000000000000100000000000100000000000,
100000000000000000100000200000100000000000100000,
200000100000000000200200200000200000000000000000,
100000200000100000100000200000200000000000200000,
000000000000200000000000200000000000200000000000,
000000000000000000100000200000100000000000100000,
200000100000000000200200200000200000000000000000,
100000200000100000100000200000200000000000200000,
000000000000000000000000100000200000000000000000,
000000000000100000000000100000100000000000500000,
000000000000000000000800000000000000100000100000,
000000000000200000200000000000000000200000200000,
000000000000200000200000000000000000200000000000,
100000000000000000100000200000100000000000100000,
200000100000000000200200200000200000000000000000,
100000200000100000100000200000200000000000200000,
000000000000200000000000200000000000200000000000,
000000000000000000100000200000100000000000100000,
200000100000000000200200200000200000000000000000,
100000200000100000100000200000200000000000200000,
000000000000000000000000100000200000000000000000,
000000000000100000000000100000100000000000500000,
000000000000000000000800000000000000100000100000,
000000000000200000200000000000000000200000200000,
100000100000200000000000100000100000100000700000,
800000000000000000000000000000000800000000000000,
200000000000200200200000000000200000000000000000,
000000000000100000200200200000100000100000000000,
100000200200200000100000100000100000000000000000,
100000200200200000100000000000000000200000200000,
000000000000200000200000000000200000200000200000,
200000000000100000200200200000100000100000000000,
100000200200200000100000100000100000000000000000,
100000200200200000100000000000000000000000000000,
100000200200200000100000100000100000000000700000,
100200000000000000000000000000000000000000000800,
000000000000200000200000000000200000200000000000,
500000000000000000000000000000800000000000000000,
300000000000000000000000100000000000100000000000,
100000000000200000000000100000100000200000100000,
000000000000200000000000100000100000200000100000,
000000000000200000000000100000100000200000100000,
000000000000200000000000100000100000200000100000,
000000000000200000000000100000100000200000100000,
000000000000200000000000100000100000200000700000,
000000000000000000000000000000000000000000000000,
000000800000000000000000000000800000000000000000,
000000300000000000000000100000000000100000000000,
100000000000200000000000100000100000200000100000,
000000000000200000000000100000100000200000100000,
000000000000200000100000100000100000200000100000,
000000000000200000000000100000100000200000500000,
000000000000800000000000100000000000100000100000,
000000000000100000200000000000000000200000000000,
100000000000100000100000000000100000000000700000,
000000000000000000000000000000000000000000800000,
#END
COURSE:Normal
LEVEL:4
BALLOON:20,20,10
SCOREINIT:900
SCOREDIFF:240
#START
000000000000000000000000000000000000000000000000,
000000100000000000000000100000000000100000000000,
100000000000000000000000100000100000000000100000,
000000000000000000000000100000100000000000100000,
000000000000000000000000100000100000000000100000,
000000000000000000000000100000100000000000100000,
000000000000000000000000100000100000000000100000,
000000000000000000000000100000100000000000100000,
000000000000000000000000100000000000100000000000,
100000000000000000000000100000000000100000000000,
100000000000000000000000100000100000000000100000,
000000000000000000000000100000100000000000100000,
000000000000000000000000100000100000000000100000,
000000000000000000000000100000100000000000100000,
000000000000000000000000100000000000100000100000,
000000000000100000100000000000000000000000000000,
100000000000100000100000000000100000000000700000,
000000000000000000000000000000000000000000000000,
000000200000000000000000000000000000000000000000,
000000000000000000000000000000800000000000000000,
000000000000000000000000100000000000100000000000,
100000000000000000000000100000000000100000000000,
100000000000000000100000100000100000000000100000,
000000100000000000200000000000200000000000000000,
100000000000100000000000000000200000000000200000,
000000000000200000000000200000000000200000000000,
000000000000000000100000100000100000000000100000,
000000100000000000200000000000200000000000000000,
100000000000100000000000000000200000000000200000,
000000000000000000000000100000100000000000000000,
000000000000100000000000000000100000000000500000,
000000000000000000800000000000000000100000100000,
000000000000200000000000000000000000200000000000,
000000000000200000000000000000000000200000000000,
100000000000000000100000100000100000000000100000,
000000100000000000200000000000200000000000000000,
100000000000100000000000000000200000000000200000,
000000000000200000000000200000000000200000000000,
000000000000000000100000100000100000000000100000,
000000100000000000200000000000200000000000000000,
100000000000100000000000000000200000000000200000,
000000000000000000000000100000100000000000000000,
000000000000100000000000000000100000000000500000,
000000000000000000800000000000000000100000100000,
000000000000000000000000000000000000000000000000,
100000000000100000000000100000100000000000500000,
000000000000000000000000000000800000000000000000,
200000000000200000200000000000200000000000000000,
000000000000100000000000000000000000100000000000,
100000000000100000100000000000100000000000000000,
100000000000100000100000000000000000000000000000,
000000000000200000000000200000000000200000000000,
000000000000100000000000100000000000100000000000,
100000000000100000100000000000100000000000000000,
100000000000100000100000000000000000000000000000,
100000000000100000100000000000100000000000700000,
000000000000000000000000000000000000000000000000,
000000200000000000000000000000000000000000000000,
000000000000000000000000000000800000000000000000,
500000000000000000000000000000800000000000000000,
300000000000000000000000100000000000100000000000,
100000000000000000000000100000100000000000100000,
000000000000000000000000100000100000000000100000,
000000000000000000000000100000100000000000100000,
000000000000000000000000100000100000000000100000,
000000000000000000000000100000100000000000100000,
000000000000000000000000100000100000000000100000,
000000000000000000000000100000000000100000000000,
100000000000000000000000100000000000100000000000,
100000000000000000000000100000100000000000100000,
000000000000000000000000100000100000000000100000,
000000000000000000000000100000100000000000100000,
000000000000000000000000100000100000000000100000,
000000000000000000000000100000000000100000100000,
000000000000100000100000000000000000000000000000,
100000000000100000100000000000100000000000700000,
000000000000000000000000000000000000000000800000,
#END
COURSE:Easy
LEVEL:4
SCOREINIT:1040
SCOREDIFF:330
#START
000000000000000000000000000000000000000000000000,
300000000000000000000000100000000000100000000000,
100000000000000000000000100000000000000000100000,
000000000000000000000000100000000000000000100000,
000000000000000000000000100000000000000000100000,
000000000000000000000000100000000000000000100000,
000000000000000000000000100000000000000000100000,
000000000000000000000000100000000000000000100000,
000000000000000000000000100000000000000000000000,
300000000000000000000000100000000000100000000000,
100000000000000000000000100000000000000000100000,
000000000000000000000000100000000000000000100000,
000000000000000000000000100000000000000000100000,
000000000000000000000000100000000000000000100000,
000000000000000000000000100000000000000000100000,
000000000000000000300000000000000000000000000000,
100000000000000000100000000000000000000000000000,
500000000000000000000000000000000000000000000000,
000000000000000000800000000000000000000000000000,
000000000000000000000000100000000000100000000000,
000000000000000000000000100000000000100000000000,
100000000000000000100000000000100000000000100000,
000000000000000000200000000000200000000000000000,
100000000000100000000000000000200000000000200000,
000000000000000000000000000000000000000000000000,
000000000000000000100000000000100000000000100000,
000000000000000000200000000000200000000000000000,
100000000000100000000000000000200000000000200000,
000000000000000000000000100000100000000000000000,
000000000000100000000000100000000000000000000000,
100000000000000000000000000000000000100000100000,
000000000000000000000000000000000000000000000000,
000000000000000000000000000000000000000000000000,
100000000000000000100000000000100000000000100000,
000000000000000000200000000000200000000000000000,
100000000000100000000000000000200000000000200000,
000000000000000000000000000000000000000000000000,
000000000000000000100000000000100000000000100000,
000000000000000000200000000000200000000000000000,
100000000000100000000000000000200000000000200000,
000000000000000000000000100000100000000000000000,
000000000000100000000000100000000000000000000000,
100000000000000000000000000000000000100000100000,
000000000000000000000000000000000000000000000000,
100000000000100000000000100000000000000000000000,
500000000000000000000000000000000000000000800000,
000000000000000000200000000000200000000000000000,
000000000000100000000000000000000000100000000000,
100000000000100000000000000000000000000000000000,
100000000000000000100000000000000000000000000000,
000000000000000000000000000000000000000000000000,
000000000000100000000000000000000000100000000000,
100000000000100000000000000000000000000000000000,
100000000000000000100000000000000000000000000000,
100000000000000000100000000000100000000000000000,
500000000000000000000000000000000000000000800000,
000000000000000000000000000000000000000000000000,
500000000000000000000000000000800000000000000000,
300000000000000000000000100000000000100000000000,
100000000000000000000000100000000000000000100000,
000000000000000000000000100000000000000000100000,
000000000000000000000000100000000000000000100000,
000000000000000000000000100000000000000000100000,
000000000000000000000000100000000000000000100000,
000000000000000000000000100000000000000000100000,
000000000000000000000000100000000000000000000000,
300000000000000000000000100000000000100000000000,
100000000000000000000000100000000000000000100000,
000000000000000000000000100000000000000000100000,
000000000000000000000000100000000000000000100000,
000000000000000000000000100000000000000000100000,
000000000000000000000000100000000000000000100000,
000000000000000000300000000000000000000000000000,
100000000000000000100000000000000000000000000000,
500000000000000000000000000000000000000000800000,
#END