360 lines
3.9 KiB
Plaintext
360 lines
3.9 KiB
Plaintext
//TJADB Project
|
|
TITLE:Peace Sign
|
|
TITLEJA:ピースサイン
|
|
SUBTITLE:--Kenshi Yonezu
|
|
SUBTITLEJA:米津玄師
|
|
BPM:200
|
|
WAVE:Peace Sign.ogg
|
|
OFFSET:-1.343
|
|
DEMOSTART:60.411
|
|
|
|
COURSE:Oni
|
|
LEVEL:7
|
|
BALLOON:7,18,18
|
|
SCOREINIT:680
|
|
SCOREDIFF:178
|
|
|
|
|
|
#START
|
|
|
|
|
|
11020121,
|
|
11020121,
|
|
1010002000102011,
|
|
1010002000102011,
|
|
11020121,
|
|
12020121,
|
|
12020202,
|
|
11170080,
|
|
1020001110200011,
|
|
1020001110102020,
|
|
01220122,
|
|
1111104000101000,
|
|
1020001110200011,
|
|
1020001110102020,
|
|
01220121,
|
|
2222203000202020,
|
|
10220202,
|
|
10220222,
|
|
11201120,
|
|
10110222,
|
|
10220202,
|
|
10220222,
|
|
10220222,
|
|
00220122,
|
|
10210102,
|
|
12210122,
|
|
10221022,
|
|
10210122,
|
|
10210102,
|
|
10210212,
|
|
10110111,
|
|
0000202000102011,
|
|
2000102000102011,
|
|
2000102000102011,
|
|
2000102000102011,
|
|
20121121,
|
|
2000102000112010,
|
|
2000102000112010,
|
|
20121211,
|
|
2000102000102011,
|
|
2000102000102011,
|
|
2000102000102011,
|
|
2000102000102011,
|
|
2000102010102011,
|
|
2000112000112010,
|
|
2000112000112000,
|
|
13,
|
|
30036000,
|
|
000000000000000000000008000000000000000000000000,
|
|
0444,//50
|
|
|
|
#GOGOSTART
|
|
1000201120100010,
|
|
0020112010100020,
|
|
0011201000112010,
|
|
0011202000300000,
|
|
1000201120100020,
|
|
01121127,
|
|
00000008,
|
|
0444,
|
|
1000201120100010,
|
|
0020112010100020,
|
|
0011201000112010,
|
|
0011202000300000,
|
|
1000201120100010,
|
|
01111117,
|
|
00000008,
|
|
00000033,
|
|
3000202000102011,
|
|
2000303000102011,
|
|
2000201110400040,
|
|
000000600000000000000000000008000000000000000000,//70
|
|
|
|
#GOGOEND
|
|
1020001110200011,
|
|
1020001110102020,
|
|
01220121,
|
|
2222203000202020,
|
|
,
|
|
#END
|
|
|
|
COURSE:Hard
|
|
LEVEL:5
|
|
BALLOON:21,14,14
|
|
SCOREINIT:620
|
|
SCOREDIFF:170
|
|
|
|
#START
|
|
10010010,
|
|
10010010,
|
|
10010010,
|
|
10010010,
|
|
10010010,
|
|
10010010,
|
|
7,
|
|
0008,
|
|
11010201,
|
|
02010111,
|
|
02220222,
|
|
22240000,
|
|
11010201,
|
|
02010111,
|
|
02220111,
|
|
11130000,
|
|
10220201,
|
|
10220201,
|
|
1111,
|
|
10110000,
|
|
10220201,
|
|
10220111,
|
|
10220222,
|
|
,
|
|
10220101,
|
|
10220111,
|
|
1212,
|
|
10110000,
|
|
10220101,
|
|
10220111,
|
|
10110111,
|
|
00000011,
|
|
10200011,
|
|
10200011,
|
|
10220202,
|
|
00001111,
|
|
10220101,
|
|
10220101,
|
|
10220202,
|
|
00000011,
|
|
10200011,
|
|
10200011,
|
|
10220202,
|
|
00002222,
|
|
2101,
|
|
2101,
|
|
13,
|
|
30036000,
|
|
000000000000000000000008000000000000000000000000,
|
|
0444,//50
|
|
|
|
#GOGOSTART
|
|
10111102,
|
|
02222201,
|
|
01110111,
|
|
02220300,
|
|
10110102,
|
|
02222227,
|
|
,
|
|
8444,
|
|
10111102,
|
|
02222201,
|
|
01110111,
|
|
02220300,
|
|
10220202,
|
|
01111117,
|
|
,
|
|
80000033,
|
|
30220113,
|
|
30330022,
|
|
20110404,
|
|
000000600000000000000000000008000000000000000000,//70
|
|
|
|
#GOGOEND
|
|
11010201,
|
|
02010111,
|
|
02220111,
|
|
11130222,
|
|
,
|
|
#END
|
|
|
|
COURSE:Normal
|
|
LEVEL:5
|
|
BALLOON:12,8,8
|
|
|
|
#START
|
|
1,
|
|
1,
|
|
1,
|
|
1,
|
|
1,
|
|
1,
|
|
7,
|
|
0008,
|
|
11010101,
|
|
01010000,
|
|
20020000,
|
|
40040000,
|
|
11010101,
|
|
01010000,
|
|
20020000,
|
|
30030000,
|
|
20220000,
|
|
20220000,
|
|
2222,
|
|
20220000,
|
|
20220000,
|
|
20220000,
|
|
20220202,
|
|
,
|
|
10110000,
|
|
10110000,
|
|
1111,
|
|
10110000,
|
|
10110000,
|
|
10110000,
|
|
10110101,
|
|
,
|
|
1200,
|
|
1200,
|
|
10110101,
|
|
,
|
|
20220000,
|
|
20220000,
|
|
10110101,
|
|
,
|
|
1200,
|
|
1200,
|
|
10110101,
|
|
,
|
|
1100,
|
|
1101,
|
|
13,
|
|
6,
|
|
000000000000000000000008000000000000000000000000,
|
|
0444,//50
|
|
|
|
#GOGOSTART
|
|
10110102,
|
|
02202001,
|
|
01110102,
|
|
02220200,
|
|
10110102,
|
|
02202007,
|
|
,
|
|
8444,
|
|
10110102,
|
|
02202001,
|
|
01110102,
|
|
02220200,
|
|
10110102,
|
|
02202007,
|
|
,
|
|
8,
|
|
10110000,
|
|
30330000,
|
|
10110303,
|
|
000000600000000000000000000008000000000000000000,//70
|
|
|
|
#GOGOEND
|
|
11010101,
|
|
01010000,
|
|
20020000,
|
|
30030000,
|
|
,
|
|
#END
|
|
|
|
COURSE:Easy
|
|
LEVEL:3
|
|
BALLOON:9,6,6
|
|
|
|
#START
|
|
1,
|
|
,
|
|
1,
|
|
,
|
|
1,
|
|
1,
|
|
7,
|
|
0008,
|
|
10000001,
|
|
,
|
|
1,
|
|
30030000,
|
|
10000001,
|
|
,
|
|
1,
|
|
30030000,
|
|
1,
|
|
1,
|
|
11,
|
|
1,
|
|
1,
|
|
1,
|
|
1,
|
|
,
|
|
1,
|
|
1,
|
|
11,
|
|
1,
|
|
1,
|
|
1,
|
|
1,
|
|
,
|
|
1100,
|
|
1100,
|
|
3,
|
|
,
|
|
1100,
|
|
1100,
|
|
3,
|
|
,
|
|
1100,
|
|
1100,
|
|
3,
|
|
,
|
|
1100,
|
|
1100,
|
|
33,
|
|
6,
|
|
000000000000000000000008000000000000000000000000,
|
|
0444,//50
|
|
|
|
#GOGOSTART
|
|
10000001,
|
|
00001005,
|
|
,
|
|
000000000000000000000000000008000000000000000000,
|
|
10000001,
|
|
00001007,
|
|
,
|
|
8444,
|
|
10000001,
|
|
00001005,
|
|
,
|
|
000000000000000000000000000008000000000000000000,
|
|
10000001,
|
|
00001007,
|
|
,
|
|
8,
|
|
10010000,
|
|
30030000,
|
|
10010006,
|
|
000000000000000000000000000008000000000000000000,//70
|
|
|
|
#GOGOEND
|
|
10000001,
|
|
,
|
|
1,
|
|
30030000,
|
|
,
|
|
#END |