270 lines
3.3 KiB
Plaintext
270 lines
3.3 KiB
Plaintext
//TJADB Project
|
|
TITLE:Pretender
|
|
TITLEJA:Pretender
|
|
SUBTITLE:--Official HIGE DANdism
|
|
SUBTITLEJA:Official髭男dism
|
|
BPM:92
|
|
WAVE:Pretender.ogg
|
|
OFFSET:-2.632
|
|
DEMOSTART:75.675
|
|
|
|
COURSE:Oni
|
|
LEVEL:5
|
|
BALLOON:22,18
|
|
SCOREINIT:860
|
|
SCOREDIFF:240
|
|
|
|
|
|
#START
|
|
|
|
|
|
1011100100102011,
|
|
1011100100102011,
|
|
1011100100102011,
|
|
1011100100102222,
|
|
1,
|
|
11,
|
|
1,
|
|
1,
|
|
1,
|
|
11,
|
|
1000200100202010,
|
|
1000200100102011,
|
|
1000200100202010,
|
|
1000200100102011,
|
|
1000200100202010,
|
|
1000200100102011,
|
|
1000200100202010,
|
|
1000200100102011,
|
|
1000201010222010,
|
|
0020102220111010,
|
|
0010202220111010,
|
|
0020201022102010,
|
|
0000201010222010,
|
|
0020102220111010,
|
|
0010202220111010,
|
|
0010221022101110,
|
|
11111111,
|
|
33333300,//28
|
|
|
|
#GOGOSTART
|
|
1022201110222011,
|
|
100000000200200000000100100100500008000000000100,
|
|
100000000200200000000100100100500008000000000100,
|
|
100000000200200000000100100100500008000000100000,
|
|
2011102210111022,
|
|
2011102220111020,
|
|
7008,
|
|
70000844,
|
|
1022201110222011,
|
|
100000000200200000000100100100500008000000000100,
|
|
100000000200200000000100100100500008000000000100,
|
|
100000000200200000000100100100500008000000100000,
|
|
2011102210111022,
|
|
2011102220111020,
|
|
1022001100220110,
|
|
2010201110202050,
|
|
,
|
|
000000000000000000000000000000000008000000000000,//46
|
|
|
|
#GOGOEND
|
|
|
|
|
|
#END
|
|
|
|
|
|
COURSE:Hard
|
|
LEVEL:4
|
|
BALLOON:15,15,20
|
|
SCOREINIT:1150
|
|
SCOREDIFF:373
|
|
|
|
|
|
#START
|
|
|
|
|
|
10100120,
|
|
10100120,
|
|
10100120,
|
|
10100120,
|
|
1,
|
|
11,
|
|
1,
|
|
1,
|
|
1,
|
|
11,
|
|
1202,
|
|
1202,
|
|
1202,
|
|
1202,
|
|
10200120,
|
|
10200120,
|
|
10200120,
|
|
10200120,
|
|
10011022,
|
|
00022011,
|
|
00011022,
|
|
0020200022202010,
|
|
00011022,
|
|
00022011,
|
|
00011022,
|
|
0020222022201110,
|
|
11111111,
|
|
33333300,//28
|
|
|
|
#GOGOSTART
|
|
12221222,
|
|
300000000000300000000000600000000008000000000000,
|
|
300000000000300000000000600000000008000000000000,
|
|
300000000000300000000000600000000008000000000000,
|
|
10211122,
|
|
10211122,
|
|
7008,
|
|
7008,
|
|
12221222,
|
|
300000000000300000000000600000000008000000000000,
|
|
300000000000300000000000600000000008000000000000,
|
|
300000000000300000000000600000000008000000000000,
|
|
10211122,
|
|
10211122,
|
|
7,
|
|
8000002220202050,
|
|
,
|
|
000000000000000000000000000000000008000000000000,//46
|
|
|
|
#GOGOEND
|
|
|
|
|
|
#END
|
|
|
|
|
|
COURSE:Normal
|
|
LEVEL:2
|
|
BALLOON:21,10,10,15
|
|
SCOREINIT:1480
|
|
SCOREDIFF:880
|
|
|
|
|
|
#START
|
|
|
|
|
|
1002,
|
|
1002,
|
|
1002,
|
|
1002,
|
|
1,
|
|
11,
|
|
1,
|
|
1,
|
|
1,
|
|
11,
|
|
1002,
|
|
1002,
|
|
1002,
|
|
1,
|
|
1002,
|
|
1002,
|
|
1002,
|
|
1,
|
|
10002001,
|
|
00002001,
|
|
00002005,
|
|
000000000000000000000000000000000008000000000000,
|
|
00002001,
|
|
02,
|
|
7,
|
|
08,
|
|
1111,
|
|
1110,//28
|
|
|
|
#GOGOSTART
|
|
1212,
|
|
300000000000300000000000600000000008000000000000,
|
|
300000000000300000000000600000000008000000000000,
|
|
300000000000300000000000600000000008000000000000,
|
|
1022,
|
|
10002220,
|
|
7008,
|
|
7008,
|
|
1212,
|
|
300000000000300000000000600000000008000000000000,
|
|
300000000000300000000000600000000008000000000000,
|
|
300000000000300000000000600000000008000000000000,
|
|
1022,
|
|
10002220,
|
|
7,
|
|
8,
|
|
5,
|
|
000000000000000000000000000000000008000000000000,//46
|
|
|
|
#GOGOEND
|
|
|
|
|
|
#END
|
|
|
|
|
|
COURSE:Easy
|
|
LEVEL:2
|
|
BALLOON:16,8,8,12
|
|
SCOREINIT:1280
|
|
SCOREDIFF:1015
|
|
|
|
|
|
#START
|
|
|
|
|
|
1,
|
|
1,
|
|
1,
|
|
1,
|
|
1,
|
|
11,
|
|
1,
|
|
1,
|
|
2,
|
|
2,
|
|
1,
|
|
11,
|
|
1,
|
|
1,
|
|
2,
|
|
2,
|
|
2,
|
|
,
|
|
12,
|
|
02,
|
|
00002005,
|
|
000000000000000000000000000000000008000000000000,
|
|
02,
|
|
02,
|
|
7,
|
|
08,
|
|
1110,
|
|
1110,//28
|
|
|
|
#GOGOSTART
|
|
11,
|
|
3330,
|
|
3330,
|
|
3330,
|
|
02,
|
|
02,
|
|
7008,
|
|
7008,
|
|
11,
|
|
3330,
|
|
3330,
|
|
3330,
|
|
02,
|
|
02,
|
|
7,
|
|
8,
|
|
5,
|
|
000000000000000000000000000000000008000000000000,//46
|
|
|
|
#GOGOEND
|
|
|
|
|
|
#END
|
|
|