Files
ESE/01 Pop/Real voice/Real voice.tja
T
2023-06-15 19:15:39 -05:00

340 lines
10 KiB
Plaintext

//TJADB Project
TITLE:Real voice
TITLEJA:Real voice
SUBTITLE:--Ayaka/Suppli
BPM:131
WAVE:Real voice.ogg
OFFSET:-2.075
DEMOSTART:76.273
COURSE:Oni
LEVEL:5
SCOREINIT:730
SCOREDIFF:150
#START
11210121,
01210120,
11210121,
01210120,
10201102,
01201120,
10201102,
0010201210102000,
1111010,
12021211,
02120120,
12021211,
02120121,
12021211,
02120120,
12021211,
0020102110102211,
1020102011201010,
0010201011112010,
1010201011102010,
10210121,
10101101,
0000201210102000,
21212121,
1113,
#GOGOSTART
10201121,
01201121,
11010121,
0010201210102000,
10201121,
01210121,
11010121,
0010201210102000,
1010222010102210,
0010201210102211,
1010222010102210,
0010120120221110,
1010222010102210,
0010200110200010,
02010201,
1000100022103000,
1010201210102010,
0010201210102010,
01210121,
0010202110102000,
1010201210102010,
0010201210102010,
01210121,
1000201210101111,
10101201,
0020110210102010,
11201121,
0010200110102000,
21212121,
11111010,
#GOGOEND
12021212,
10001001
#BPMCHANGE 116.67
#SCROLL 1.12
1010
#BPMCHANGE 100.83
#SCROLL 1.29
1010,
#SCROLL 1.31
1,
#END
COURSE:Hard
LEVEL:4
SCOREINIT:800
SCOREDIFF:190
#START
100000000000200000200000000000100000100000100000,
000000100000100000100000000000200000200000000000,
100000000000200000200000000000100000100000100000,
000000100000100000100000000000200000200000000000,
100000000000200000000000100000100000000000100000,
000000000000200000000000100000100000200000000000,
100000000000200000000000100000100000000000100000,
000000000000200000000000100000100000200000000000,
100000100000100000100000100000000000000000000000,
100000000000100000000000100000100000000000100000,
000000200000100000200000000000200000200000000000,
100000000000100000000000100000100000000000100000,
000000200000100000200000000000100000200000000000,
100000000000100000000000100000100000000000100000,
000000200000100000200000000000200000200000000000,
100000000000100000100000000000100000000000100000,
000000200000100000200000000000100000100100100000,
100000000000200000000000000000100000100000100000,
000000100000200000100000000000100000200000000000,
100000100000200000100000000000100000200000000000,
100000000000200000100000000000100000000000100000,
000000100000500000000000000000000000000800000000,
000000100000200000000000100000000000100000100000,
000000100000500000000000000000000000000800000000,
100000000000100000000000100000000000300000000000,
#GOGOSTART
100000000000200000000000100000100000200000100000,
000000100000200000000000100000100000200000000000,
100000100000000000100000000000100000200000100000,
000000100000200000100000000000000000000000000000,
100000000000200000000000100000100000200000100000,
000000100000200000000000100000100000200000000000,
100000100000000000100000000000100000200000100000,
000000100000200000100000000000000000000000000000,
100000100000000000000000100000100000000000100000,
000000100000200000000000100000100000200000000000,
100000100000000000000000100000100000000000100000,
000000100000200000000000100000100000200000000000,
100000100000000000000000100000100000000000100000,
000000100000200000000000100000100000000000100000,
000000200000000000100000000000200000000000100000,
000000000000000000000000000000000000300000000000,
100000000000200000000000100000100000200000100000,
000000100000200000000000100000100000200000100000,
000000100000200000100000000000100000200000100000,
000000100000100000000000100000000000000000000000,
100000000000200000000000100000100000200000100000,
000000100000100000100000000000000000100000100000,
000000000000100000200000000000200000000000500000,
000000000000000000000000000000000800000000000000,
100000000000100000000000100000100000000000100000,
000000000000100000000000100000200000000000000000,
100000100000000000000000100000100000200000100000,
000000100000200000500000000000000000000000000000,
000000000000000000000000000000000000000000000000,
000000000000000000000800000000000000000000000000,
#GOGOEND
100000200000000000200000100000200000000000200000,
100000000000000000000000
#BPMCHANGE 116.67
#SCROLL 1.12
000000100000
#BPMCHANGE 100.83
#SCROLL 1.29
100000100000,
#BPMCHANGE 100
#SCROLL 1.31
100000000000000000000000000000000000000000000000,
#END
COURSE:Normal
LEVEL:4
BALLOON:10,16
SCOREINIT:980
SCOREDIFF:280
#START
100000000000200000000000000000100000000000100000,
000000000000200000000000000000000000200000000000,
100000000000200000000000000000100000000000100000,
000000000000200000000000000000000000200000000000,
100000000000100000000000000000100000000000100000,
000000000000000000000000000000000000000000000000,
100000000000000000000000100000100000000000100000,
000000000000200000000000000000000000200000000000,
100000000000100000000000100000000000000000000000,
100000000000100000000000100000000000000000100000,
000000000000200000000000000000000000200000000000,
100000000000100000000000100000000000000000100000,
000000000000200000000000000000000000200000000000,
100000000000100000100000000000100000000000100000,
000000000000200000000000000000000000200000000000,
100000000000100000100000000000100000000000100000,
000000000000200000000000000000000000200000000000,
100000000000000000000000000000100000100000100000,
000000100000000000000000000000000000000000000000,
100000000000100000100000000000000000000000000000,
100000000000100000100000000000100000000000100000,
000000100000500000000000000000800000000000000000,
000000000000000000000000100000000000100000100000,
000000700000000000000000000000000000000000800000,
000000000000000000000000000000000000000000000000,
#GOGOSTART
100000000000200000000000100000000000100000100000,
000000000000100000000000000000000000000000000000,
100000000000200000000000100000000000200000000000,
100000000000200000000000100000000000000000000000,
100000000000200000000000100000000000100000100000,
000000000000100000000000000000000000000000000000,
100000000000200000000000100000000000200000000000,
100000000000200000000000100000000000000000000000,
100000100000000000000000100000100000000000300000,
000000000000000000000000000000000000000000000000,
100000100000000000000000100000100000000000500000,
000000000000000000000000000000800000000000000000,
100000100000000000000000100000100000000000300000,
000000000000000000000000000000000000000000100000,
000000100000000000100000000000100000000000100000,
000000000000000000000000000000000000000000000000,
100000000000200000000000100000000000100000100000,
000000000000100000000000000000000000000000100000,
000000100000200000100000000000100000200000100000,
000000000000100000000000100000000000000000000000,
100000000000200000000000100000000000100000100000,
000000000000100000000000000000000000000000000000,
100000000000200000100000000000100000000000100000,
500000000000000000000000000000800000000000000000,
100000000000100000000000000000100000000000100000,
000000000000000000000000000000000000000000000000,
100000100000000000000000100000100000000000100000,
000000100000100000000000700000000000000000000000,
000000000000000000000000000000000000000000000000,
000000000000000000800000000000000000000000000000,
#GOGOEND
100000000000200000000000100000000000200000000000,
100000000000100000000000
#BPMCHANGE 116.67
#SCROLL 1.12
100000000000
#BPMCHANGE 100.83
#SCROLL 1.29
000000000000,
#BPMCHANGE 100
#SCROLL 1.31
100000000000000000000000000000000000000000000000,
#END
COURSE:Easy
LEVEL:3
BALLOON:16
SCOREINIT:1080
SCOREDIFF:330
#START
100000000000000000000000000000100000000000100000,
000000000000000000000000000000000000000000000000,
100000000000000000000000000000100000000000100000,
000000000000000000000000000000000000000000000000,
100000000000000000000000000000200000000000200000,
000000000000000000000000000000000000000000000000,
100000000000000000000000000000200000000000200000,
000000000000000000000000000000000000000000000000,
500000000000000000000000800000000000000000000000,
100000000000100000000000100000000000000000100000,
000000000000000000000000000000000000000000000000,
100000000000100000000000100000000000000000100000,
000000000000000000000000000000000000000000000000,
200000000000200000000000200000000000000000200000,
000000000000000000000000000000000000000000000000,
200000000000200000000000200000000000000000200000,
000000000000000000000000000000000000000000000000,
100000000000000000000000000000100000000000100000,
000000100000000000000000000000000000000000000000,
100000000000100000000000000000000000000000000000,
100000000000000000000000100000000000000000000000,
100000000000100000000000000000000000000000000000,
000000000000000000000000100000000000100000000000,
500000000000000000000000000000000000800000000000,
000000000000000000000000000000000000000000000000,
#GOGOSTART
100000000000200000000000000000000000000000000000,
100000000000100000000000000000000000000000000000,
100000000000200000000000000000000000200000000000,
100000000000200000000000000000000000000000000000,
100000000000200000000000000000000000000000000000,
100000000000100000000000000000000000000000000000,
100000000000200000000000000000000000200000000000,
100000000000200000000000000000000000000000000000,
100000000000000000000000100000000000000000100000,
000000000000000000000000000000000000000000000000,
100000000000000000000000100000000000000000100000,
000000000000000000000000000000000000000000000000,
100000000000000000000000100000000000000000500000,
000000000000000000800000000000000000000000100000,
000000100000000000100000000000100000000000100000,
000000000000000000000000000000000000000000000000,
100000000000200000000000000000000000000000000000,
100000000000100000000000000000000000000000000000,
100000000000200000000000000000000000200000000000,
100000000000200000000000000000000000000000000000,
100000000000200000000000000000000000000000000000,
100000000000100000000000000000000000000000000000,
100000000000200000000000000000000000200000000000,
100000000000200000000000000000000000000000000000,
100000000000000000000000100000000000000000100000,
000000000000000000000000000000000000000000000000,
300000000000000000000000300000000000000000300000,
000000000000000000000000700000000000000000000000,
000000000000000000000000000000000000000000000000,
000000000000000000800000000000000000000000000000,
#GOGOEND
100000000000000000000000200000000000000000000000,
100000000000100000000000
#BPMCHANGE 116.67
#SCROLL 1.12
100000000000
#BPMCHANGE 100.83
#SCROLL 1.29
000000000000,
#BPMCHANGE 100
#SCROLL 1.31
100000000000000000000000000000000000000000000000,
#END