Files
ESE/01 Pop/Romance/Romance.tja
T
2023-06-15 19:15:39 -05:00

345 lines
14 KiB
Plaintext

//TJADB Project
TITLE:Romance
TITLEJA:ロマンス
SUBTITLE:--PENICILLIN/Sexy Commando Gaiden
BPM:146
WAVE:Romance.ogg
OFFSET:-1.848
DEMOSTART:81.984
COURSE:Oni
LEVEL:8
SCOREINIT:500
SCOREDIFF:130
#START
100000000100000000100000000000000000000000000000,
#GOGOSTART
100000200000100100200000100000200000100100200000,
300000000000300000000000300000000000200000200000,
100000200000100100200000100000200000100100200000,
200000100100100000200000100100100000200000100000,
100000200000100100200000100000200000100100200000,
300000000000300000000000300000000000200000200000,
100000200000100100200000100000200000100100200000,
100000100200000100100000100200000100100000200000,
100000200000100100200000100000200000100100200000,
300000000000300000000000300000000000200000200000,
100000200000100100200000100000200000100100200000,
200000100100100000200000100100100000200000100000,
100000200000100100200000100000200000100100200000,
300000000000300000000000300000000000200000200000,
100000200000100100200000100000200000100100200000,
500000000000000000000000000000000008000000000000,
#GOGOEND
100000200000100200000100200000100200100100200000,
100000200000100200000100200000100200100100200000,
100000200000100200000100200000100200100100200000,
100000200000100200000100200000100200100200100100,
100000200000100200000100200000100200100100200000,
100000200000100200000100200000100200100100200000,
100000200000100200000100200000100200100100200000,
100000000200000000200000100000200000200200100100,
100000100000200000000100000100100000200000100000,
100000100000200000000100000100100000200000100000,
100000100000200000000200100000100000200000000200,
100000100000200000000200100000200000100200000000,
100000100000200000000100000100100000200000100000,
100000100000200000000100000100100000200000100000,
100100100100200000000200100100100100200000000000,
100000200000100200000100200000100200100100200000,
100000100000200000000100000100100000200000100000,
100000100000200000000100000100100000200000100000,
100000100000200000000200100000100000200000000200,
100000100000200000000200100000200000100200000000,
100000100000200000000100000100100000200000100000,
100000100000200000000100000100100000200000100000,
100100100100200000000200100100100100200000000000,
100000200000100200000100200000100200100100200000,
100000000000200000000000100000100000200000100000,
100000100000200000100000000000100000200000000000,
100000000000200000000000100000100000200000100000,
200000100100200000100100200000100100200000100000,
200000100100100000200000100100100000200000100100,
200000100100100000200000100100100000200000500000,
000000000000000000000000000008000000000000000000,
300000000300000000300000300000000000000000000000,
#GOGOSTART
100000200000100100200000100000200000100100200000,
300000000000300000000000300000000000200000200000,
100000200000100100200000100000200000100100200000,
200000100100100000200000100100100000200000100000,
100000200000100100200000100000200000100100200000,
300000000000300000000000300000000000200000200000,
100000200000100100200000100000200000100100200000,
100000100200000100100000100200000100100000200000,
100000200000100100200000100000200000100100200000,
300000000000300000000000300000000000200000200000,
100000200000100100200000100000200000100100200000,
200000100100100000200000100100100000200000100000,
100000200000100100200000100000200000100100200000,
300000000000300000000000300000000000200000200000,
100000200000100100200000100000200000100100200000,
500000000000000000000000000000000008000000000000,
#GOGOEND
#END
COURSE:Hard
LEVEL:5
SCOREINIT:630
SCOREDIFF:150
#START
000000000000000000000000000000000000000000000000,
#GOGOSTART
100000000000200000100000100100100000200000000000,
300000000000300000000000300000000000200000200000,
100000000000200000100000100100100000200000200000,
100000000000200000000000200000000000200000200000,
100000000000200000100000100100100000200000000000,
100000000000100000000000100000000000200000200000,
100000000000200000000000100100100000200000100000,
500000000000000000000000000000000800000000000000,
100000000000200000100000100100100000200000000000,
300000000000300000000000300000000000200000200000,
100000000000200000100000100100100000200000200000,
100000000000200000000000200000000000200000200000,
100000000000200000100000100100100000200000000000,
100000000000100000000000100000000000200000200000,
100000000000200000000000100100100000200000100000,
500000000000000000000000000000000800000000000000,
#GOGOEND
100000000000200000000000100000100000200000000000,
100000100000200000000000100000200000000000000000,
100000000000200000000000100000100000200000000000,
100000200000100100000000200000000000000000000000,
100000000000200000000000100000100000200000000000,
100000100000200000000000100000200000000000000000,
100000000000200000000000100000100000200000000000,
100000000000000000000000000000000000000000000000,
100000000000200000000000000000100000100000000000,
100000000000200000000000000000100000100000000000,
100000100000200000000000100000100000200000000000,
100000100000200000000000100000200000000100000000,
100000000000200000000000000000100000100000000000,
100000000000200000000000000000100000100000000000,
100100100000200000000000100100100000200000000000,
100000200000000200000000100000000200000000200000,
100000000000200000000000000000100000100000000000,
100000000000200000000000000000100000100000000000,
100000100000200000000000100000100000200000000000,
100000100000200000000000100000200000000100000000,
100000000000200000000000000000100000100000000000,
100000000000200000000000000000100000100000000000,
100100100000200000000000100100100000200000000000,
100000200000000200000000100000000200000000200000,
100000000000200000100000000000100000200000100000,
100000100000200000100000000000100000200000000000,
100000000000200000100000000000100000200000100000,
000000000000200000100000000000100000200000000000,
100000100100100000100000100100100000100000000000,
100000100100100000100000100100100000500000000000,
000000000000000000000000000800000000000000000000,
300000000300000000300000300000000000000000000000,
#GOGOSTART
100000000000200000100000100100100000200000000000,
300000000000300000000000300000000000200000200000,
100000000000200000100000100100100000200000200000,
100000000000200000000000200000000000200000200000,
100000000000200000100000100100100000200000000000,
100000000000100000000000100000000000200000200000,
100000000000200000000000100100100000200000100000,
500000000000000000000000000000000800000000000000,
100000000000200000100000100100100000200000000000,
300000000000300000000000300000000000200000200000,
100000000000200000100000100100100000200000200000,
100000000000200000000000200000000000200000200000,
100000000000200000100000100100100000200000000000,
100000000000100000000000100000000000200000200000,
100000000000200000000000100100100000200000100000,
500000000000000000000000000000000800000000000000,
#GOGOEND
#END
COURSE:Normal
LEVEL:4
SCOREINIT:830
SCOREDIFF:250
#START
000000000000000000000000000000000000000000000000,
#GOGOSTART
100000000000000000100000100000000000100000000000,
300000000000300000000000300000000000000000000000,
100000000000000000100000100000000000100000000000,
200000000000200000000000200000000000000000000000,
100000000000000000100000100000000000100000000000,
100000000000100000000000100000000000000000000000,
100000000000000000000000100000000000100000000000,
500000000000000000000000800000000000000000000000,
100000000000000000100000100000000000100000000000,
300000000000300000000000300000000000000000000000,
100000000000000000100000100000000000100000000000,
200000000000200000000000200000000000000000000000,
100000000000000000100000100000000000100000000000,
100000000000100000000000100000000000000000000000,
100000000000000000000000100000000000100000000000,
500000000000000000000000800000000000000000000000,
#GOGOEND
000000000000000000000000000000000000000000000000,
100000000000000000000000000000000000000000000000,
100000000000000000000000000000000000000000000000,
100000000000000000000000000000000000000000000000,
100000000000000000000000000000000000000000000000,
100000000000000000000000000000000000000000000000,
100000000000000000000000000000000000000000000000,
100000000000000000000000000000000000000000000000,
100000000000200000000000000000100000100000000000,
100000000000000000000000200000000000000000000000,
100000000000200000000000100000000000200000000000,
100000000000200000000000000000000000000000000000,
100000000000200000000000000000100000100000000000,
100000000000000000000000200000000000000000000000,
100000000000200000000000100000000000200000000000,
100000000000200000000000000000000000000000000000,
100000000000200000000000000000100000100000000000,
100000000000000000000000200000000000000000000000,
100000000000200000000000100000000000200000000000,
100000000000200000000000000000000000000000000000,
100000000000200000000000000000100000100000000000,
100000000000000000000000200000000000000000000000,
100000000000200000000000100000000000200000000000,
100000000000200000000000000000000000000000000000,
100000000000000000000000200000000000000000000000,
100000000000200000000000100000000000000000000000,
100000000000000000000000200000000000000000000000,
100000000000100000000000100000000000100000000000,
100000000000000000100000000000000000100000000000,
100000000000000000100000000000000000500000000000,
000000000000000000000000800000000000000000000000,
300000000000000000000000000000000000000000000000,
#GOGOSTART
100000000000000000100000100000000000100000000000,
300000000000300000000000300000000000000000000000,
100000000000000000100000100000000000100000000000,
400000000000400000000000400000000000000000000000,
100000000000000000100000100000000000100000000000,
100000000000100000000000100000000000000000000000,
100000000000000000000000100000000000100000000000,
500000000000000000000000800000000000000000000000,
100000000000000000100000100000000000100000000000,
300000000000300000000000300000000000000000000000,
100000000000000000100000100000000000100000000000,
400000000000400000000000400000000000000000000000,
100000000000000000100000100000000000100000000000,
100000000000100000000000100000000000000000000000,
100000000000000000000000100000000000100000000000,
500000000000000000000000800000000000000000000000,
#GOGOEND
#END
COURSE:Easy
LEVEL:3
SCOREINIT:640
SCOREDIFF:250
#START
000000000000000000000000000000000000000000000000,
#GOGOSTART
300000000000000000000000300000000000000000000000,
300000000000300000000000300000000000000000000000,
100000000000000000000000100000000000000000000000,
100000000000000000000000000000000000000000000000,
300000000000000000000000300000000000000000000000,
300000000000300000000000300000000000000000000000,
100000000000000000000000100000000000000000000000,
500000000000000000000000800000000000000000000000,
300000000000000000000000300000000000000000000000,
300000000000300000000000300000000000000000000000,
100000000000000000000000100000000000000000000000,
100000000000000000000000000000000000000000000000,
300000000000000000000000300000000000000000000000,
300000000000300000000000300000000000000000000000,
100000000000000000000000100000000000000000000000,
500000000000000000000000800000000000000000000000,
#GOGOEND
000000000000000000000000000000000000000000000000,
100000000000000000000000000000000000000000000000,
100000000000000000000000000000000000000000000000,
100000000000000000000000000000000000000000000000,
100000000000000000000000000000000000000000000000,
100000000000000000000000000000000000000000000000,
100000000000000000000000000000000000000000000000,
100000000000000000000000000000000000000000000000,
100000000000100000000000000000000000000000000000,
100000000000000000000000100000000000000000000000,
100000000000000000000000100000000000000000000000,
100000000000000000000000000000000000000000000000,
100000000000100000000000000000000000000000000000,
100000000000000000000000100000000000000000000000,
100000000000000000000000100000000000000000000000,
100000000000000000000000000000000000000000000000,
100000000000100000000000000000000000000000000000,
100000000000000000000000100000000000000000000000,
100000000000000000000000200000000000000000000000,
100000000000000000000000000000000000000000000000,
100000000000100000000000000000000000000000000000,
100000000000000000000000100000000000000000000000,
100000000000000000000000200000000000000000000000,
100000000000000000000000000000000000000000000000,
100000000000000000000000200000000000000000000000,
100000000000000000000000100000000000100000000000,
100000000000000000000000200000000000000000000000,
100000000000000000000000000000000000000000000000,
100000000000000000100000000000000000000000000000,
100000000000000000100000000000000000500000000000,
000000000000000000000000800000000000000000000000,
300000000000000000000000000000000000000000000000,
#GOGOSTART
300000000000000000000000300000000000000000000000,
300000000000300000000000300000000000000000000000,
100000000000000000000000100000000000000000000000,
100000000000000000000000000000000000000000000000,
300000000000000000000000300000000000000000000000,
300000000000300000000000300000000000000000000000,
100000000000000000000000100000000000000000000000,
500000000000000000000000800000000000000000000000,
300000000000000000000000300000000000000000000000,
300000000000300000000000300000000000000000000000,
100000000000000000000000100000000000000000000000,
100000000000000000000000000000000000000000000000,
300000000000000000000000300000000000000000000000,
300000000000300000000000300000000000000000000000,
100000000000000000000000100000000000000000000000,
500000000000000000000000800000000000000000000000,
#GOGOEND
#END