Files
ESE/01 Pop/STAY TUNE/STAY TUNE.tja
T
2023-06-15 19:15:39 -05:00

394 lines
4.8 KiB
Plaintext

//TJADB Project
TITLE:STAY TUNE
TITLEJA:STAY TUNE
SUBTITLE:--Suchmos
SUBTITLEJA:Suchmos
BPM:123.09
WAVE:STAY TUNE.ogg
OFFSET:-4.991
DEMOSTART:20.600
COURSE:Oni
LEVEL:7
SCOREINIT:660
SCOREDIFF:170
#START
2012000020120000,
#BPMCHANGE 122.55
1110202010004000,
#BPMCHANGE 123.32
#SCROLL 0.99
2012000020120000,
#BPMCHANGE 122.45
#SCROLL 1
1110202010004000,
#BPMCHANGE 122.91
2012000020120000,
#BPMCHANGE 123.51
#SCROLL 0.99
1120202010004000,
#BPMCHANGE 123.69
2012000020120000,
#BPMCHANGE 122.23
#SCROLL 1
1120202012002200,
#GOGOSTART
#BPMCHANGE 122.5
1001202011202000,
#BPMCHANGE 123.23
#SCROLL 0.99
1110202011202012,
#BPMCHANGE 123.35
500000000000000000000000000000000008000000200000,
#BPMCHANGE 122.8
#SCROLL 1
1110104000400000,
#BPMCHANGE 122.91
1001202011102000,
#BPMCHANGE 122.32
1110201110200020,
#BPMCHANGE 123.47
#SCROLL 0.99
0010202011200040,
#BPMCHANGE 124.47
#SCROLL 0.98
00040000,
#GOGOEND
#BPMCHANGE 121.87
#SCROLL 1.01
2012000020120000,
#BPMCHANGE 122.16
#SCROLL 1
1110202010004000,
#BPMCHANGE 123.39
#SCROLL 0.99
2012000020120000,
#BPMCHANGE 123.44
1110202010004000,
#BPMCHANGE 123.28
2012000020120000,
#BPMCHANGE 122.84
#SCROLL 1
1120202010004000,
#BPMCHANGE 123.18
#SCROLL 0.99
2012000020120000,
#BPMCHANGE 123.46
1120202012021020,
#BPMCHANGE 122.18
#SCROLL 1
10201210,
#BPMCHANGE 123.32
#SCROLL 0.99
1010222010102220,
#BPMCHANGE 123
#SCROLL 1
1000200012102000,
#BPMCHANGE 122.73
1010222010102220,
#BPMCHANGE 123.3
#SCROLL 0.99
1000200012102000,
#BPMCHANGE 122.66
#SCROLL 1
1010202210104000,
#BPMCHANGE 123.46
#SCROLL 0.99
1010202012102000,
#BPMCHANGE 123.37
1010222010004000,
#BPMCHANGE 122.64
#SCROLL 1
1010222010201120,
#BPMCHANGE 122.72
1020100012104000,
1010222010201120,
#BPMCHANGE 123.15
#SCROLL 0.99
1022102010004000,
1012002010120020,
1110202010004000,
#BPMCHANGE 123.46
1012102010120020,
#BPMCHANGE 124.16
1020121020012020,
#BPMCHANGE 123.32
1010202210102022,
#BPMCHANGE 122.25
#SCROLL 1
1020100011104000,
1010202210102022,
#BPMCHANGE 123.46
#SCROLL 0.99
1020100011104000,
#BPMCHANGE 122.59
#SCROLL 1
1022102010221020,
#BPMCHANGE 122.5
1020100011104000,
#BPMCHANGE 122.86
1022102010221020,
#BPMCHANGE 123.83
#SCROLL 0.99
1020120011104000,
#GOGOSTART
#BPMCHANGE 122.09
#SCROLL 1
1001202011202000,
#BPMCHANGE 122.55
1110202011202012,
#BPMCHANGE 122.86
500000000000000000000000000000000008000000200000,
1110104000400000,
#BPMCHANGE 123.55
#SCROLL 0.99
1001202011102000,
#BPMCHANGE 122.27
#SCROLL 1
1110201120200020,
#BPMCHANGE 123.64
#SCROLL 0.99
1012002010120020,
#BPMCHANGE 124.44
#SCROLL 0.98
1110202010221000,
#GOGOEND
#BPMCHANGE 123
#SCROLL 1
4,
#END
COURSE:Hard
LEVEL:5
BALLOON:13,13
SCOREINIT:920
SCOREDIFF:230
#START
2002000020020000,
1110101010000000,
2002000020020000,
1110101010000000,
2002000020020000,
1110101010000000,
2002000020020000,
1110101020000000,//8
#GOGOSTART
10201120,
1110200010002020,
500000000000000000000000000000000008000000300000,
00040400,
10201120,
10201120,
10201104,
,//16
#GOGOEND
2002000020020000,
1110101010000000,
2002000020020000,
1110101010000000,
2002000020020000,
1110101010000000,
2002000020020000,
1110101020000000,
1112,
10102220,
1202,
10101110,
1202,
10102220,
10200007,
0008,
10201110,
10201120,
10201110,
10201120,
,
10201110,
10200007,
0008,
10101120,
1000100010222000,
10101120,
1000100010222000,
10201120,
1000200010222000,
10201120,
1000200022202000,//48
#GOGOSTART
10201120,
1110200010002020,
500000000000000000000000000000000008000000300000,
00040400,
10201120,
1110200010102000,
1,
1110101010222000,//56
#GOGOEND
3,
,
,
#END
COURSE:Normal
LEVEL:3
BALLOON:6,4,20,20
#START
11,
1110,
11,
1110,
12,
1110,
12,
78,//8
#GOGOSTART
1110,
10101025,
000000000000000000000000000000000000000000000008,
,
0112,
,
1111,
1,//16
#GOGOEND
11,
1110,
11,
1110,
12,
1110,
12,
78,
11,
11101000,
2,
11101000,
20000007,
,
08,
1110,
10001110,
12,
10001110,
12,
00000007,
,
08,
3,
1110,
11102000,
1110,
11102000,
2220,
22201000,
2220,
22201000,//48
#GOGOSTART
3334,
30303046,
000000000000000000000000000000000000000000000008,
,
0334,
,
11,
1120,//56
#GOGOEND
3,
,
,
#END
COURSE:Easy
LEVEL:2
BALLOON:4,4,14,14
#START
11,
3,
22,
4,
11,
3,
22,
78,//8
#GOGOSTART
11,
1110,
500000000000000000000000000000000000000000000008,
,
0111,
00000005,
000000000000000000000000000000000000000000000008,
,//16
#GOGOEND
11,
3,
22,
4,
11,
3,
22,
78,
11,
11,
2,
11,
20000007,
,
08,
11,
1011,
11,
1011,
11,
00000007,
,
08,
11,
11,
1110,
11,
1110,
22,
2220,
22,
2220,//48
#GOGOSTART
33,
3330,
600000000000000000000000000000000000000000000008,
,
0333,
,
11,
1110,//56
#GOGOEND
3,
,
,
#END