259 lines
8.6 KiB
Plaintext
259 lines
8.6 KiB
Plaintext
//TJADB Project
|
|
TITLE:San-nen Me no Uwaki
|
|
TITLEJA:3年目の浮気
|
|
SUBTITLE:--Hiroshi & Keyboard
|
|
BPM:100
|
|
WAVE:San-nen Me no Uwaki.ogg
|
|
OFFSET:-2.439
|
|
DEMOSTART:40.814
|
|
|
|
COURSE:Oni
|
|
LEVEL:5
|
|
|
|
STYLE:Double
|
|
|
|
|
|
#START P1
|
|
|
|
|
|
100000200000100000200000100000100200000100200000,
|
|
100000100000100200000100000000000000000000000000,
|
|
100000200000100000200000100000100200000100200000,
|
|
100000100000100200000100000000000000000000100100,
|
|
200200000100000000100100200200000100000000000000,
|
|
100200000100000000100100200200000100000000000000,
|
|
100100000100000100100100100000000000100100000100,
|
|
100000000000000000000000000000000000000000100100,
|
|
100000100000100100000100000000000000000000000000,
|
|
100100100100000000100100100000200200200000200000,
|
|
100000100100100000200000100000100100200000200000,
|
|
100000100100200100100000100000200200200000100100,
|
|
100000100000100100000100000000000000000000000000,
|
|
100100200000100000100100200000100000100000000000,
|
|
100000100100200000100000100100200100200000100000,
|
|
100000100100200000100100100000000000300000000000,
|
|
0202,
|
|
0202,
|
|
0202,
|
|
0202,
|
|
1122101110102020,
|
|
1122101110202000,
|
|
2111211121110122,
|
|
100100200200100100100000500000000000000008000000,
|
|
1101011110003000,
|
|
2000000020000011,
|
|
1010110110001000,
|
|
1011202011221120,
|
|
1120112010003000,
|
|
1010100110111010,
|
|
1120112010001000,
|
|
0202,
|
|
0202,
|
|
100000100000100000000100100200200100100000100000,
|
|
100000100100200000100000200000100100100000000000,
|
|
100000100000200000100100200000100000100000200000,
|
|
300000000000300000000000300000000000000000000000,
|
|
|
|
|
|
#END
|
|
|
|
|
|
#START P2
|
|
|
|
|
|
100000200000100000200000100000100200000100200000,
|
|
100000100000100200000100000000000000000000000000,
|
|
100000200000100000200000100000100200000100200000,
|
|
100000100000100200000100000000000000000000100100,
|
|
200200000100000000100100200200000100000000000000,
|
|
100200000100000000100100200200000100000000000000,
|
|
100100000100000100100100100000000000100100000100,
|
|
100000000000000000000000000000000000000000100100,
|
|
100000100000100100000100000000000000000000000000,
|
|
100100100100000000100100100000200200200000200000,
|
|
100000100100100000200000100000100100200000200000,
|
|
100000100100200100100000100000200200200000100100,
|
|
100000100000100100000100000000000000000000000000,
|
|
100100200000100000100100200000100000100000000000,
|
|
100000100100200000100000100100200100200000100000,
|
|
100000100100200000100100100000000000300000000000,
|
|
1122101110102020,
|
|
1122101110202000,
|
|
211121112110122,
|
|
100100200200100100100000500000000000000008000000,
|
|
0202,
|
|
0202,
|
|
0202,
|
|
0202,
|
|
1101011110003011,
|
|
1010110110001000,
|
|
22,
|
|
1011202011221120,
|
|
1120112010003000,
|
|
0202,
|
|
0202,
|
|
1010100110111010,
|
|
1120112010001000,
|
|
100000100000100000000100100200200100100000100000,
|
|
100000100100200000100000200000100100100000000000,
|
|
100000100000200000100100200000100000100000200000,
|
|
300000000000300000000000300000000000000000000000,
|
|
|
|
|
|
#END
|
|
|
|
|
|
COURSE:Hard
|
|
LEVEL:4
|
|
SCOREINIT:930
|
|
SCOREDIFF:240
|
|
|
|
|
|
#START
|
|
|
|
|
|
100000200000100000200000100000200200000200200000,
|
|
100000100000100100000100000000000000000000000000,
|
|
100000200000100000200000100000200200000200200000,
|
|
100000100000100100000100000000000000000000000000,
|
|
100100000100000000000000100100000100000000000000,
|
|
100100000200000000000000100100000200000000000000,
|
|
100100000100000100100100100000000000100100000100,
|
|
100000000000000000000000000000000000000000000000,
|
|
100000100000100000000100000000000000000000000000,
|
|
100000100000000000100100100000000000000000000000,
|
|
100000100000100100100000100000100000100100100000,
|
|
100000100000100000000000300000000000000000100100,
|
|
100000100000100000000100000000000000000000000000,
|
|
100100100000100000100100000000100000000000000000,
|
|
100000100000100100100000100000100000100100100000,
|
|
100000100000100000000000300000000000000000000000,
|
|
200000000000200000000000200000200200200000000000,
|
|
200000200000200000000000200000200200200000000000,
|
|
200000000000200000000000200000200000200000000000,
|
|
200000000000200000000000200000200200200000000000,
|
|
100000100000100000000000100000000000000000000000,
|
|
100100100000100000100100000000000000100000000000,
|
|
100000100000100100100000100000100000100100100000,
|
|
100000100000100000000000300000000000000000000000,
|
|
100100000100000100100000300000000000000000200200,
|
|
200000000000200000000200000000200200200000100100,
|
|
100000000000100000000100000000000000000000000000,
|
|
200000200000200000000000200000200000200000000000,
|
|
200200200000200000000000200000200200200000000000,
|
|
100000100000100000000100100000100000100000000000,
|
|
100000100000100000100000300000000000000000000000,
|
|
200000200000200000000000200000200000200000000000,
|
|
200000200000200000000000200000200000200000000000,
|
|
100000100000100000000100100000100000100000000000,
|
|
100000100000100000100000300000000000000000000000,
|
|
200000200000200000000000200000200000200000000000,
|
|
200000200000200000000000200000000000000000000000,
|
|
|
|
|
|
#END
|
|
|
|
|
|
COURSE:Normal
|
|
LEVEL:3
|
|
BALLOON:10
|
|
SCOREINIT:930
|
|
SCOREDIFF:240
|
|
|
|
|
|
#START
|
|
|
|
|
|
100000000000000000000000100000000000000000000000,
|
|
100000100000100000000000100000000000000000000000,
|
|
000000000000200000000000000000000000200000000000,
|
|
100000100000100000000000100000000000000000000000,
|
|
200000000000000000000000200000000000000000000000,
|
|
000000000000100000000000000000000000100000000000,
|
|
100000100000100000000000100000000000000000000000,
|
|
300000000000000000000000000000000000000000000000,
|
|
100000000000100000000000100000000000000000000000,
|
|
100000000000100000000000100000000000000000000000,
|
|
100000000000100000000000100000000000000000000000,
|
|
100000000000100000000000300000000000000000000000,
|
|
100000000000100000000000100000000000000000000000,
|
|
100000000000100000000000100000000000000000000000,
|
|
100000000000100000000000100000000000000000000000,
|
|
100000000000100000000000300000000000000000000000,
|
|
200000000000200000000000000000200000200000000000,
|
|
200000000000200000000000000000200000200000000000,
|
|
200000000000200000000000000000200000200000000000,
|
|
200000000000200000000000400000000000000000000000,
|
|
200000000000200000000000000000200000200000000000,
|
|
200000000000200000000000000000200000200000000000,
|
|
100000000000000000000000100000000000000000000000,
|
|
100000100000100000000000700000000000000000000000,
|
|
000000800000000000000000300000000000000000000000,
|
|
200000000000200000000000000000200000200000000000,
|
|
100000100000100000000000100000000000000000000000,
|
|
100000000000000000000000100000000000000000000000,
|
|
100000100000100000000000300000000000000000000000,
|
|
100000100000100000000000100000000000000000000000,
|
|
100000100000100000000000100000000000000000000000,
|
|
000000000000200000000000000000000000200000000000,
|
|
000000000000200000000000400000000000000000000000,
|
|
100000100000100000000000100000000000000000000000,
|
|
100000100000100000000000100000000000000000000000,
|
|
000000000000200000000000000000000000200000000000,
|
|
000000000000200000200000200000000000000000000000,
|
|
|
|
|
|
#END
|
|
|
|
|
|
COURSE:Easy
|
|
LEVEL:3
|
|
SCOREINIT:930
|
|
SCOREDIFF:240
|
|
|
|
|
|
#START
|
|
|
|
|
|
100000000000000000000000100000000000000000000000,
|
|
100000000000100000000000100000000000000000000000,
|
|
100000000000000000000000100000000000000000000000,
|
|
100000000000100000000000100000000000000000000000,
|
|
200000000000000000000000200000000000000000000000,
|
|
200000000000000000000000200000000000000000000000,
|
|
100000000000100000000000100000000000000000000000,
|
|
300000000000000000000000000000000000000000000000,
|
|
100000000000000000000000100000000000000000000000,
|
|
100000000000100000000000100000000000000000000000,
|
|
100000000000000000000000100000000000000000000000,
|
|
100000000000100000000000100000000000000000000000,
|
|
100000000000000000000000100000000000000000000000,
|
|
100000000000100000000000100000000000000000000000,
|
|
100000000000000000000000100000000000000000000000,
|
|
100000000000100000000000100000000000000000000000,
|
|
200000000000000000000000200000000000200000000000,
|
|
200000000000000000000000200000000000200000000000,
|
|
200000000000000000000000200000000000200000000000,
|
|
200000000000000000000000200000000000000000000000,
|
|
200000000000000000000000200000000000200000000000,
|
|
200000000000000000000000200000000000200000000000,
|
|
100000000000000000000000100000000000000000000000,
|
|
100000000000100000000000500000000000000000800000,
|
|
000000000000000000000000300000000000000000000000,
|
|
200000000000000000000000000000000000200000000000,
|
|
100000000000000000000000100000000000000000000000,
|
|
100000000000000000000000100000000000000000000000,
|
|
100000000000100000000000300000000000000000000000,
|
|
100000000000100000000000100000000000000000000000,
|
|
100000000000100000000000100000000000000000000000,
|
|
000000000000200000000000000000000000200000000000,
|
|
200000000000000000000000200000000000000000000000,
|
|
100000000000100000000000100000000000000000000000,
|
|
100000000000100000000000100000000000000000000000,
|
|
000000000000200000000000000000000000200000000000,
|
|
200000000000000000000000200000000000000000000000,
|
|
|
|
|
|
#END
|
|
|