Files
ESE/01 Pop/Shuchishin/Shuchishin.tja
T
2023-06-15 19:00:23 -05:00

318 lines
12 KiB
Plaintext

//TJADB Project
TITLE:Shuchishin
TITLEJA:羞恥心
SUBTITLE:--Shuchishin/Quiz! Hexagon Ⅱ
BPM:148
WAVE:Shuchishin.ogg
OFFSET:-1.907
DEMOSTART:63.519
COURSE:Oni
LEVEL:7
BALLOON:18
SCOREINIT:690
SCOREDIFF:160
#START
300000000000300000000000300000300000000000000000,
100000100000200000000000200000200000000000100000,
200000000000100000200000200000000200000000200000,
100000100000200000000000100000200000000000100100,
200000000000100100100000100100200100100100100000,
100000100000200000000000100000200100100000100000,
200000100100100000200000000000300000000000000000,
100000200000200000100000200000200000100000200000,
100000000000300000000000300000000000000000000000,
100000000000200000000000000000200000000000000000,
100000000000000000200000000000000000100000100100,
100000000000200000000000000000200000000000000000,
100000001000000010001000100000000000300000000000,
100000000000200000100100100000100100200000100000,
100000000000200000100100200000200200100000000000,
100000000000200000100100100000100100200000100000,
100000000000200000100100200000200200100000000000,
100000000000200000100100100000100100200000100000,
100000000000200000100100100000100100200000100000,
100000100100200000100100100000100100200000300000,
000000300000300000000000300000000000300000000000,
100000000000200000200200100000200200100000200000,
100000200200100000200000100000200200100000200000,
100000000000200000200200100000200200100000200000,
100000200200100000200000100000200200100000200000,
100000000000200000200200100000200200100000200000,
100000200200100000200000100000200200100000200000,
100000100100100000100000000000100000000000100000,
000000200000200000000000200000100000100000100000,
100000000000200000100000000000100000200000000000,
100000000000200000100000000000100000200000100000,
100000000000200000100000000000100000200000000000,
100000000000200000100000000000100000200000100000,
100000000000200000100000000000100000200000000000,
100000000000200000100000000000200000100000000000,
100000001000000010000000100000001000000010000000,
500000000000000000000000000000000008000000000000,
300000000000300000000000200200100100100000000000,
#GOGOSTART
300000000000400000000000300000000000400000000000,
300000000000400000000000300000000000400000000000,
100000100100200000100100100000100100200000100100,
100000100000200000000000100200000100000200200000,
100000200200100000200200100000200000200000000000,
100000200200100000200200100000200000200000000000,
100000200200100000200200100000200000000000300000,
000000300000300000300000300000000000100100100000,
300000000000000000400000400000100000200000200000,
300000000000000000400000400000100000200000200000,
100000100100200000100100100000100100200000100100,
100000200000100000200000100000200000200000000000,
100000200200100000200200100000200000200000000000,
100000200200100000200200100000000000200000200000,
100000000000100000000000100000100000200000500000,
000000000000000000000000000000000008000000000000,
000000300000000000300000300000100000000100000000,
100000300000000000300000300000200000000200000000,
200000300000000000300000300000000000000000000000,
000000100000200000200000100000000000100000700000,
000000000000000000000000000000000000000000000000,
0800,
#GOGOEND
#END
COURSE:Hard
LEVEL:4
BALLOON:15
SCOREINIT:700
SCOREDIFF:190
#START
300000000000300000000000300000300000000000000000,
100000100000200000000000200000200000000000100000,
200000000000100000200000000000000000000000000000,
100000100000200000000000100000200000000000100000,
200000000000100000200000000000000000000000000000,
100000100000200000000000100000200000000000100000,
200000100100100000200000000000300000000000000000,
100000200000200000100000200000200000100000000000,
000000000000300000000000300000000000000000000000,
100000000000200000000000000000200000000000000000,
100000000000000000200000000000000000100000100100,
100000000000200000000000000000200000000000000000,
100000001000000010001000100000000000300000000000,
100000000000200000000000100000000000200000100000,
100000000000200000000000100000000000100000000000,
100000000000200000000000100000000000200000100000,
100000000000200000000000100000000000100000000000,
100000000000200000000000100000000000200000100000,
100000000000200000000000100000000100000000100000,
100000000000200000000000100000000000000000500000,
000000000000000000000800000000000000000000000000,
100000000000200000000000100000000000200000000000,
100000100000200000100000200000100000200000100000,
100000000000200000000000100000000000200000000000,
100000100000200000100000200000100000200000100000,
100000000000200000000000100000000000200000000000,
100000100000200000100000100000100000200000100000,
500000000000000000000800000000000000000000000000,
000000000000000000000000000000100000100000100000,
100000000000000000100000000000000000200000000000,
100000000000000000100000000000100000200000000000,
100000000000000000100000000000000000200000000000,
100000000000000000100000200000100000200000100000,
100000000000000000100000000000000000200000000000,
100000000000000000100000000000200000100000000000,
100000001000000010000000100000001000000010000000,
500000000000000000000000000000000800000000000000,
300000000000300000000000000000000000000000000000,
#GOGOSTART
300000000000400000000000300000000000400000000000,
300000000000400000000000300000000000400000000000,
100000000000200000100000100000100000000000500000,
000000000800000000000000000000000000000000100100,
100000000000200000000000100000000000200000000000,
100000100000200000000000100000100000200000000000,
100000000000100000000000100000100000000000300000,
000000300000300000300000300000000000000000000000,
300000000000000000300000300000100100100000000000,
300000000000000000300000300000100100100000000000,
100000000000200000100000100000100000000000500000,
000000000800000000000000000000000000000000000000,
100000100000200000100000100000000000200000000000,
100000100000200000100000100000000000200000000000,
100000000000100000000000100000100000000000500000,
000000000000000000000000000000000800000000000000,
000000300000000000300000300000000000000000000000,
000000400000000000400000400000000000000000000000,
000000300000000000300000300000000000000000000000,
000000100000100000200000100000000000100000700000,
100500000000000000000000000000000000000000000000,
000000000000000000000000000000000000000000000800,
#END
COURSE:Normal
LEVEL:4
BALLOON:12
SCOREINIT:1010
SCOREDIFF:240
#START
300000000000000000000000300000000000000000000000,
100000000000100000000000200000000000000000100000,
100000000000100000000000000000000000000000000000,
100000000000100000000000200000000000000000100000,
100000000000100000000000000000000000000000000000,
100000000000100000000000200000000000000000100000,
100000000000100000000000000000000000000000000000,
500000000000000000000000000000800000000000000000,
000000000000300000000000300000000000000000000000,
100000000000200000000000000000200000000000000000,
100000000000000000200000000000000000000000000000,
000000000000200000000000000000200000000000000000,
100000000000000000000000000000000000000000000000,
100000000000100000000000100000000000200000000000,
100000000000100000000000200000000000000000000000,
100000000000100000000000100000000000200000000000,
100000000000100000000000200000000000000000000000,
100000000000100000000000100000000000200000000000,
100000000000100000000000200000000000100000000000,
100000000000000000000000100000000000000000500000,
000000000000000000000000800000000000000000000000,
100000000000100000000000100000000000200000000000,
100000000000100000000000200000000000000000000000,
100000000000100000000000100000000000200000000000,
100000000000100000000000200000000000000000000000,
100000000000100000000000100000000000200000000000,
100000000000100000000000100000000000200000000000,
500000000000000000000000800000000000000000000000,
000000000000000000000000000000000000000000000000,
100000000000000000100000000000000000200000000000,
100000000000000000100000000000000000000000000000,
100000000000000000100000000000000000200000000000,
100000000000000000100000000000000000000000000000,
100000000000000000100000000000000000200000000000,
100000000000000000100000000000000000000000000000,
100000000000000000000000100000000000000000000000,
500000000000000000000000800000000000000000000000,
300000000000300000000000000000000000000000000000,
#GOGOSTART
300000000000300000000000300000000000300000000000,
300000000000300000000000300000000000300000000000,
000000000000100000000000100000000000000000100000,
000000000000000000000000000000000000000000000000,
100000000000200000000000100000000000000000000000,
100000000000200000000000100000000000000000000000,
100000000000000000000000100000100000000000100000,
000000100000100000000000100000000000000000000000,
33,
10011000,
10101101,
,
100000000000100000000000200000000000100000000000,
100000000000100000000000200000000000000000000000,
100000000000100000000000100000100000000000500000,
000000000000000000000000000000800000000000000000,
000000100000000000100000100000000000000000000000,
000000300000000000300000300000000000000000000000,
000000300000000000300000300000000000000000000000,
000000300000300000000000300000000000300000700000,
000000000000000000000000000000000000000000000000,
000000000000000000000000000000000000000000800000,
#GOGOEND
#END
COURSE:Easy
LEVEL:4
BALLOON:5
SCOREINIT:960
SCOREDIFF:290
#START
000000000000000000000000000000000000000000000000,
100000000000000000000000200000000000000000000000,
100000000000100000000000000000000000000000000000,
100000000000000000000000200000000000000000000000,
100000000000100000000000000000000000000000000000,
100000000000000000000000200000000000000000000000,
100000000000100000000000000000000000000000000000,
100000000000000000100000000000000000100000000000,
000000000000300000000000300000000000000000000000,
100000000000000000000000000000000000000000000000,
100000000000000000000000000000000000000000000000,
100000000000000000000000000000000000000000000000,
100000000000000000000000100000000000000000000000,
100000000000000000000000100000000000000000000000,
100000000000100000000000100000000000000000000000,
100000000000000000000000100000000000000000000000,
100000000000100000000000100000000000000000000000,
100000000000000000000000100000000000000000000000,
100000000000100000000000100000000000000000000000,
100000000000000000000000100000000000000000300000,
000000000000000000000000000000000000000000000000,
100000000000000000000000100000000000000000000000,
100000000000100000000000100000000000000000000000,
100000000000000000000000100000000000000000000000,
100000000000100000000000100000000000000000000000,
100000000000000000000000100000000000000000000000,
100000000000100000000000100000000000000000000000,
500000000000000000000000800000000000000000000000,
000000000000000000000000000000000000000000000000,
100000000000000000100000000000000000000000000000,
100000000000000000100000000000000000000000000000,
100000000000000000100000000000000000000000000000,
100000000000000000100000000000000000000000000000,
100000000000000000100000000000000000000000000000,
100000000000000000100000000000000000000000000000,
300000000000000000000000300000000000000000000000,
500000000000000000000000000000000000000000800000,
000000000000000000000000000000000000000000000000,
#GOGOSTART
300000000000000000000000300000000000000000000000,
300000000000000000000000300000000000000000000000,
100000000000000000000000100000000000000000000000,
100000000000000000000000000000000000000000000000,
100000000000000000000000100000000000000000000000,
100000000000000000000000000000000000000000000000,
100000000000100000000000100000000000000000000000,
100000000000100000000000100000000000000000000000,
600000000000000000000000800000000000000000000000,
600000000000000000000000800000000000000000000000,
100000000000000000000000100000000000100000000000,
100000000000000000000000000000000000000000000000,
100000000000100000000000100000000000000000000000,
100000000000100000000000100000000000000000000000,
200000000000200000000000200000000000000000500000,
000000000000000000800000000000000000000000000000,
3,
31,
31,
11103030,
900000000000000000000000000000000000000000000000,
000000000000000000000000000000000000000000000008,
#GOGOEND
#END