178 lines
5.4 KiB
Plaintext
178 lines
5.4 KiB
Plaintext
//TJADB Project
|
|
TITLE:Shunkashuutou
|
|
TITLEJA:春夏秋冬
|
|
SUBTITLE:--Hilcrhyme
|
|
SUBTITLEJA:太鼓の達人オリジナル曲
|
|
BPM:70
|
|
WAVE:Shunkashuutou.ogg
|
|
OFFSET:-3.838
|
|
DEMOSTART:58.162
|
|
|
|
COURSE:Oni
|
|
LEVEL:5
|
|
BALLOON:10
|
|
SCOREINIT:1390
|
|
SCOREDIFF:390
|
|
|
|
|
|
#START
|
|
|
|
|
|
200000000000000200200000200000000000200000000000,
|
|
200000000000000200000200200000000000200000000000,
|
|
200000000200200000000000000000200000000200000200,
|
|
700000000000000000000000000800000000000000000000,
|
|
100000100000200000000010100000100000200000000000,
|
|
100000100010200000000010100000100000200000000000,
|
|
100000100000200000000010100000100000200000000000,
|
|
100000100010200000000010100000100000200000000000,
|
|
100000100010200000100000000010100000200000000000,
|
|
100000100010200000100000000010100000200000000000,
|
|
100000100000200000100000000010100000200000100000,
|
|
100000100000200000100000000010100000200000000000,
|
|
100000100010200000100000000010100000200000100000,
|
|
100000100010200000100000000010100000200000000000,
|
|
100000100000200000100010100000100000200000000000,
|
|
300000300000400000300000600000000008000000100010,
|
|
|
|
#GOGOSTART
|
|
100000000010200000100000200000100010200000100010,
|
|
100000000010200000100000200000100010200000000000,
|
|
100000100010200000100020200000100010200000000010,
|
|
100000100010200000000010100000100010200000100010,
|
|
100000000010200000100010100000100010200000100010,
|
|
100000000010200000100010100000100010200000000000,
|
|
100000100010200000100020200000100010200000000010,
|
|
100000100010200000000010100000100010200000000000,
|
|
|
|
#GOGOEND
|
|
|
|
|
|
#END
|
|
|
|
|
|
COURSE:Hard
|
|
LEVEL:4
|
|
BALLOON:8
|
|
SCOREINIT:1650
|
|
SCOREDIFF:550
|
|
|
|
|
|
#START
|
|
|
|
|
|
200000000000000000200000200000000000200000000000,
|
|
200000000000000000200000200000000000200000000000,
|
|
200000000000200000000000000000200000200000000000,
|
|
700000000000000000000000000800000000000000000000,
|
|
100000000000200000000000100000100000100000000000,
|
|
100000000000200000000000100000200000100000000000,
|
|
100000000000200000000000100000100000100000000000,
|
|
100000000000200000000000100000200000100000000000,
|
|
100000000000200000000000200000200000200000000000,
|
|
100000000000200000000000200000100000200000000000,
|
|
100000000000200000000000200000200000200000000000,
|
|
100000000000200000000000200000100000200000000000,
|
|
100000000000200000100000000000100000200000000000,
|
|
100000000000200000100000000000100000200000000000,
|
|
100000100000200000000000100000100000200000000000,
|
|
300000000000300000600000000000000008000000000000,
|
|
|
|
#GOGOSTART
|
|
100000000100100000200000100000100000200000000000,
|
|
100000000100100000200000100000100000200000000000,
|
|
100000100000200000100100100000100000200000000000,
|
|
100000200000100000000000100000200000100000000000,
|
|
100000000100200000100000100000100000200000000000,
|
|
100000000100200000100000100000100000200000000000,
|
|
100000100000200000100100100000100000200000000000,
|
|
100000200000100000000000100000200000100000000000,
|
|
|
|
#GOGOEND
|
|
|
|
|
|
#END
|
|
|
|
|
|
COURSE:Normal
|
|
LEVEL:3
|
|
BALLOON:7
|
|
SCOREINIT:1520
|
|
SCOREDIFF:640
|
|
|
|
|
|
#START
|
|
|
|
|
|
200000000000000000000000200000000000200000000000,
|
|
200000000000000000000000200000000000200000000000,
|
|
200000000000000000000000200000000000200000000000,
|
|
700000000000000000000800000000000000000000000000,
|
|
100000000000000000000000100000000000100000000000,
|
|
100000000000000000000000100000100000100000000000,
|
|
100000000000000000000000100000000000100000000000,
|
|
100000000000000000000000100000100000100000000000,
|
|
200000000000000000000000200000000000200000000000,
|
|
200000000000000000000000200000200000200000000000,
|
|
200000000000000000000000200000000000200000000000,
|
|
200000000000000000000000200000200000200000000000,
|
|
100000000000100000000000000000100000100000000000,
|
|
100000000000100000000000000000100000100000000000,
|
|
100000000000100000000000200000000000200000000000,
|
|
300000000000300000600000000000000800000000000000,
|
|
#GOGOSTART
|
|
100000000000100000000000100000100000100000000000,
|
|
100000000000100000000000100000100000100000000000,
|
|
100000100000100000000000200000200000200000000000,
|
|
100000100000100000000000200000200000200000000000,
|
|
100000000100100000000000100000100000100000000000,
|
|
100000000100100000000000100000100000100000000000,
|
|
100000100000100000000000200000200000200000000000,
|
|
100000100000100000000000200000200000200000000000,
|
|
#GOGOEND
|
|
|
|
|
|
#END
|
|
|
|
|
|
COURSE:Easy
|
|
LEVEL:2
|
|
BALLOON:5
|
|
SCOREINIT:1330
|
|
SCOREDIFF:790
|
|
|
|
|
|
#START
|
|
|
|
|
|
100000000000000000000000100000000000100000000000,
|
|
100000000000000000000000100000000000100000000000,
|
|
100000000000000000000000100000000000100000000000,
|
|
700000000000000000000800000000000000000000000000,
|
|
100000000000000000000000100000000000000000000000,
|
|
100000000000100000000000100000000000000000000000,
|
|
100000000000000000000000100000000000000000000000,
|
|
100000000000100000000000100000000000000000000000,
|
|
200000000000000000000000200000000000000000000000,
|
|
200000000000200000000000200000000000000000000000,
|
|
200000000000000000000000200000000000000000000000,
|
|
200000000000200000000000200000000000000000000000,
|
|
100000000000200000000000100000000000000000000000,
|
|
100000000000200000000000100000000000000000000000,
|
|
100000000000100000000000200000000000200000000000,
|
|
300000000000000000600000000000000800000000000000,
|
|
#GOGOSTART
|
|
300000000000000000000000100000100000100000000000,
|
|
300000000000000000000000100000100000100000000000,
|
|
100000000000000000000000100000000000000000000000,
|
|
100000000000100000000000200000000000200000000000,
|
|
300000000000000000000000100000100000100000000000,
|
|
300000000000000000000000100000100000100000000000,
|
|
100000000000000000000000100000000000000000000000,
|
|
100000000000100000000000200000000000200000000000,
|
|
#GOGOEND
|
|
|
|
|
|
#END
|
|
|