347 lines
13 KiB
Plaintext
347 lines
13 KiB
Plaintext
//TJADB Project
|
||
TITLE:S’il vous President
|
||
TITLEJA:シル・ヴ・プレジデント
|
||
SUBTITLE:--Pmarusama
|
||
SUBTITLEJA:P丸様。
|
||
BPM:176
|
||
WAVE:S’il vous President.ogg
|
||
OFFSET:-1.478
|
||
DEMOSTART:50.064
|
||
|
||
COURSE:Oni
|
||
LEVEL:7
|
||
BALLOON:20,10,24
|
||
SCOREINIT:640
|
||
SCOREDIFF:150
|
||
|
||
|
||
#START
|
||
|
||
|
||
000000000000000000000000000000200000200000200000,
|
||
500000000000000000000000000008000000200000000000,
|
||
100000100000200000200000100000000000200000000000,
|
||
100000100000200000100100200000100000200000100000,
|
||
100000100100100000200000100000100000200000000000,
|
||
100000100000200000100100200000100000200000100000,
|
||
200000200200200000100000200000100000200000000000,
|
||
100000100000200000100100200000100000200000100000,
|
||
100000100100100000200000100000100000200000000000,
|
||
100000100000200000100100200000100000200000100000,
|
||
200000200200200000100000200000100000200000000000,
|
||
300000000000300000000000300000000000200000000000,
|
||
100000000000200000100100200000000000200000200000,
|
||
100000000000200000200200200000000000100000000000,
|
||
100000000000200000100100200000000000200000200000,
|
||
100000000000200000200200200000000000100000000000,
|
||
100000000000200000100100200000000000200000200000,
|
||
100000000000200000200200200000000000100000000000,
|
||
100000000000200000100100200000000000200000200000,
|
||
100000000000200000200200200000100000100000100000,
|
||
100000000000200000000000200000100100200000200000,
|
||
100000000000100000000000100000200100100000500000,
|
||
000000000000000000000008000000100000200000200000,
|
||
000000100000200000200200200000100000100000100000,
|
||
100000000000200000000000200000100100200000200000,
|
||
100000000000100000000000200000200100100000200000,
|
||
500000000000000000000000000000000008000000000000,
|
||
100100200000100100200000100000200000200000100000,
|
||
100000000000100000200000200000000000200000100000,
|
||
100000000000100000200000200000000000200000100000,
|
||
200000100000100000100000200000000000100000100000,
|
||
500000000000000000000008000000100000200000000000,
|
||
100000100100100000100100200000100000200000000000,
|
||
700000000000000000000000000000000000000000000000,
|
||
000000000000000000800000000000100000200000000000,
|
||
300000000000400000000000300000200000200000200000,
|
||
|
||
#GOGOSTART
|
||
300000000000300000000000300000000000100000100100,
|
||
200000100000100000200000200000100100200000100000,
|
||
100000200200100000200000200000100000100000100100,
|
||
100000100100100000100100200000100100200000100000,
|
||
100000000000200000100100100000100000200000100100,
|
||
200000100000100000200000000000200200200000000000,
|
||
1011201110102070,
|
||
000000000000000000000000800000200000200000200000,
|
||
100000000000200000100000200200200000100000200000,
|
||
100000100100100000200000100000200200200000000000,
|
||
100000000000100000200000100100100000200000200000,
|
||
100000100100100000200000100000200200200000000000,
|
||
100000000000100000100100100000100000200000200000,
|
||
100000200000200000100000000000100000100100200000,
|
||
500000000000000000000000000008000000200000000000,
|
||
100000100000100000200200100000000000200000000000,
|
||
100000000000200000200000100000100100100000200000,
|
||
300000400000300000400000300000000000400000000000,
|
||
|
||
#GOGOEND
|
||
100000100000200000100100200000100000200000100000,
|
||
100000100100100000200000100000100000200000000000,
|
||
100000100000200000100100200000100000200000100000,
|
||
200000200200200000100000200000100000200000000000,
|
||
100000100000200000100100200000100000200000100000,
|
||
100000100100100000200000100000100000200000000000,
|
||
100000100000200000100100200000100000200000100000,
|
||
200000200200200000100000200000100000200000000000,
|
||
400000000000400000000000300000000000300000000000,
|
||
4000402220001070,
|
||
,
|
||
00080000,
|
||
|
||
|
||
#END
|
||
|
||
|
||
COURSE:Hard
|
||
LEVEL:5
|
||
BALLOON:9,14
|
||
SCOREINIT:750
|
||
|
||
|
||
#START
|
||
|
||
|
||
000000000000000000000000000000000000000000000000,
|
||
500000000000000000000000000008000000000000000000,
|
||
100000100000100000000000100000000000200000000000,
|
||
100000100000200000100000000000100000200000000000,
|
||
100000100000100000200000100000100000200000000000,
|
||
100000100000200000100000000000100000200000000000,
|
||
200000200000200000100000200000200000200000000000,
|
||
100000100000200000100000000000100000200000000000,
|
||
100000100000100000200000100000100000200000000000,
|
||
100000100000200000100000000000100000200000000000,
|
||
200000200000200000100000200000200000200000000000,
|
||
300000000000300000000000300000000000200000000000,
|
||
100000000000000000100000200000000000000000200000,
|
||
100000000000000000200000200000000000100000000000,
|
||
100000000000000000100000200000000000000000200000,
|
||
100000000000000000200000200000000000100000000000,
|
||
100000000000000000100000200000000000000000200000,
|
||
100000000000000000200000200000000000100000000000,
|
||
100000000000000000100000200000000000000000200000,
|
||
100000000000000000200000200000100000100000100000,
|
||
100000000000100000000000000000100000200000200000,
|
||
100000000000100000000000100000200000100000500000,
|
||
000000000000000000000008000000000000200000000000,
|
||
000000100000200000100000000000100000100000100000,
|
||
100000000000100000000000000000100000200000200000,
|
||
100000000000100000000000200000100000100000200000,
|
||
500000000000000000000000000000000008000000000000,
|
||
100000100000100000000000100000200000200000000000,
|
||
100000000000000000200000200000000000000000000000,
|
||
100000000000000000200000200000000000000000000000,
|
||
200000100000100000200000100000000000100000100000,
|
||
500000000000000000000008000000000000000000000000,
|
||
100000100000100000100000200000200000200000000000,
|
||
700000000000000000000000000000000000000000000000,
|
||
800000000000000000000000000000000000000000000000,
|
||
400000000000400000000000400000000000000000000000,
|
||
|
||
#GOGOSTART
|
||
300000000000300000000000300000000000100000200000,
|
||
000000200000100000200000000000100000200000100000,
|
||
000000200000100000100000000000000000100000100000,
|
||
000000000000100000000000100000000000200000000000,
|
||
100000000000000000100000100000000000000000200000,
|
||
100000100000100000100000000000000000200000000000,
|
||
100000100000200000100000000000100000100000500000,
|
||
000000000000000000000008000000000000200000000000,
|
||
100000000000200000200000100000000000200000000000,
|
||
200000200000100000000000100000000000200000000000,
|
||
100000000000100000100000200000000000100000000000,
|
||
100000100000200000000000200000000000100000000000,
|
||
200000000000100000000000100000000000100000200000,
|
||
100000100000000000200000000000100000100000200000,
|
||
500000000000000000000000000008000000200000000000,
|
||
100000100000100000200000100000000000200000000000,
|
||
100000000000200000200000100000100000100000000000,
|
||
300000000000300000000000300000000000400000000000,
|
||
|
||
#GOGOEND
|
||
100000100000200000100000000000100000200000000000,
|
||
100000100000100000200000100000100000200000000000,
|
||
100000100000200000100000000000100000200000000000,
|
||
200000200000200000100000200000200000200000000000,
|
||
100000100000200000100000000000100000200000000000,
|
||
100000100000100000200000100000100000200000000000,
|
||
100000100000200000100000000000100000200000000000,
|
||
200000200000200000100000200000200000200000000000,
|
||
400000000000400000000000400000000000400000000000,
|
||
40402007,
|
||
,
|
||
00080000,
|
||
|
||
|
||
#END
|
||
|
||
|
||
COURSE:Normal
|
||
LEVEL:4
|
||
BALLOON:7,12
|
||
SCOREINIT:730
|
||
|
||
|
||
#START
|
||
|
||
|
||
000000000000000000000000000000000000000000000000,
|
||
500000000000000000000000000008000000000000000000,
|
||
100000000000100000000000100000000000200000000000,
|
||
100000000000100000100000000000000000100000000000,
|
||
100000000000100000000000100000100000100000000000,
|
||
100000000000100000100000000000000000100000000000,
|
||
100000000000100000000000200000200000200000000000,
|
||
100000000000100000100000000000000000100000000000,
|
||
100000000000100000000000100000100000100000000000,
|
||
100000000000100000100000000000000000100000000000,
|
||
100000000000100000000000200000200000200000000000,
|
||
300000000000300000000000300000000000000000000000,
|
||
100000000000000000100000100000000000000000000000,
|
||
100000000000000000200000200000000000000000000000,
|
||
100000000000000000100000100000000000000000000000,
|
||
100000000000000000200000200000000000000000000000,
|
||
100000000000000000100000100000000000000000000000,
|
||
100000000000000000200000200000000000000000000000,
|
||
100000000000000000100000100000000000000000000000,
|
||
100000000000000000200000200000000000000000000000,
|
||
100000000000100000000000000000000000200000000000,
|
||
100000000000100000000000100000000000000000500000,
|
||
000000000000000000000008000000000000000000000000,
|
||
000000000000000000000000000000000000000000000000,
|
||
100000000000100000000000000000000000200000000000,
|
||
100000000000100000000000200000000000200000000000,
|
||
500000000000000000000000000000000008000000000000,
|
||
000000000000000000000000000000000000000000000000,
|
||
100000000000000000000000100000000000000000000000,
|
||
100000000000000000000000200000000000000000000000,
|
||
100000000000000000000000100000000000000000000000,
|
||
500000000000000000000008000000000000000000000000,
|
||
100000000000100000000000100000100000100000000000,
|
||
700000000000000000000000000000000000000000000000,
|
||
800000000000000000000000000000000000000000000000,
|
||
400000000000400000000000400000000000000000000000,
|
||
|
||
#GOGOSTART
|
||
300000000000300000000000300000000000000000200000,
|
||
000000200000000000200000000000100000100000100000,
|
||
000000100000100000100000000000000000100000100000,
|
||
000000000000100000000000100000000000100000000000,
|
||
100000000000000000100000100000000000000000000000,
|
||
200000000000200000200000000000000000000000000000,
|
||
100000000000000000100000000000000000000000500000,
|
||
000000000000000000000008000000000000000000000000,
|
||
100000000000000000100000100000000000100000000000,
|
||
100000100000100000000000100000000000000000000000,
|
||
100000000000000000200000200000000000200000000000,
|
||
100000000000100000000000100000000000000000000000,
|
||
200000000000100000000000100000000000100000000000,
|
||
100000100000000000100000000000000000200000000000,
|
||
500000000000000000000000000008000000000000000000,
|
||
100000100000100000000000100000000000200000000000,
|
||
100000000000100000000000100000100000100000000000,
|
||
300000000000300000000000300000000000400000000000,
|
||
|
||
#GOGOEND
|
||
100000000000100000100000000000000000100000000000,
|
||
100000000000100000000000100000100000100000000000,
|
||
100000000000100000100000000000000000100000000000,
|
||
100000000000100000000000200000200000200000000000,
|
||
100000000000100000100000000000000000100000000000,
|
||
100000000000100000000000100000100000100000000000,
|
||
100000000000100000100000000000000000100000000000,
|
||
100000000000100000000000200000200000200000000000,
|
||
400000000000400000000000400000000000400000000000,
|
||
40400007,
|
||
,
|
||
00080000,
|
||
|
||
|
||
#END
|
||
|
||
|
||
COURSE:Easy
|
||
LEVEL:3
|
||
BALLOON:5,10
|
||
SCOREINIT:770
|
||
|
||
|
||
#START
|
||
|
||
|
||
000000000000000000000000000000000000000000000000,
|
||
500000000000000000000000000008000000000000000000,
|
||
100000000000100000000000100000000000000000000000,
|
||
100000000000000000100000000000000000000000000000,
|
||
100000000000100000000000100000000000000000000000,
|
||
100000000000000000100000000000000000000000000000,
|
||
200000000000200000000000200000000000000000000000,
|
||
100000000000000000100000000000000000000000000000,
|
||
100000000000100000000000100000000000000000000000,
|
||
100000000000000000100000000000000000000000000000,
|
||
200000000000200000000000200000000000000000000000,
|
||
300000000000300000000000300000000000000000000000,
|
||
100000000000000000000000100000000000000000000000,
|
||
100000000000000000000000200000000000000000000000,
|
||
100000000000000000000000100000000000000000000000,
|
||
100000000000000000000000200000000000000000000000,
|
||
100000000000000000000000100000000000000000000000,
|
||
100000000000000000000000200000000000000000000000,
|
||
100000000000000000000000100000000000000000000000,
|
||
100000000000000000000000200000000000000000000000,
|
||
100000000000100000000000000000000000000000000000,
|
||
100000000000000000000000100000000000000000500000,
|
||
000000000000000000000008000000000000000000000000,
|
||
000000000000000000000000000000000000000000000000,
|
||
100000000000100000000000000000000000000000000000,
|
||
100000000000000000000000200000000000000000000000,
|
||
500000000000000000000000000000000008000000000000,
|
||
000000000000000000000000000000000000000000000000,
|
||
100000000000000000000000000000000000000000000000,
|
||
100000000000000000000000000000000000000000000000,
|
||
200000000000000000000000000000000000000000000000,
|
||
500000000000000000000008000000000000000000000000,
|
||
100000000000100000000000100000000000000000000000,
|
||
700000000000000000000000000000000000000000000000,
|
||
800000000000000000000000000000000000000000000000,
|
||
400000000000400000000000400000000000000000000000,
|
||
|
||
#GOGOSTART
|
||
300000000000300000000000300000000000000000100000,
|
||
000000000000000000100000000000000000000000200000,
|
||
000000000000000000200000000000000000000000100000,
|
||
000000000000100000000000100000000000000000000000,
|
||
100000000000000000000000100000000000000000000000,
|
||
200000000000000000000000000000000000000000000000,
|
||
100000000000000000000000000000000000000000500000,
|
||
000000000000000000000008000000000000000000000000,
|
||
100000000000000000000000100000000000000000000000,
|
||
100000000000100000000000100000000000000000000000,
|
||
100000000000000000000000200000000000000000000000,
|
||
100000000000100000000000100000000000000000000000,
|
||
000000000000100000000000100000000000000000000000,
|
||
100000000000000000100000000000000000000000000000,
|
||
500000000000000000000000000008000000000000000000,
|
||
100000000000100000000000100000000000000000000000,
|
||
100000000000000000000000100000000000000000000000,
|
||
300000000000300000000000300000000000000000000000,
|
||
|
||
#GOGOEND
|
||
100000000000000000100000000000000000000000000000,
|
||
100000000000100000000000100000000000000000000000,
|
||
100000000000000000100000000000000000000000000000,
|
||
200000000000200000000000200000000000000000000000,
|
||
100000000000000000100000000000000000000000000000,
|
||
100000000000100000000000100000000000000000000000,
|
||
100000000000000000100000000000000000000000000000,
|
||
200000000000200000000000200000000000000000000000,
|
||
400000000000000000000000400000000000000000000000,
|
||
40000007,
|
||
,
|
||
00080000,
|
||
|
||
|
||
#END
|
||
|