Files
ESE/01 Pop/Soup/Soup.tja
T
2023-06-15 19:15:39 -05:00

246 lines
4.4 KiB
Plaintext

//TJADB Project
TITLE:Soup
TITLEJA:Soup
SUBTITLE:--Sakura Fujiwara
BPM:84
WAVE:Soup.ogg
OFFSET:-3.179
DEMOSTART:63.402
COURSE:Oni
LEVEL:8
SCOREINIT:610
SCOREDIFF:160
#START
#MEASURE 1/4
#SCROLL 1.25
002202,
#MEASURE 4/4
100202002202100202000200,
100100200202100100202202,
100010200020100010200020500000000000000008000000,
101202101202100002002002,
101202200100000100202202,
100000100001100100000100,//7
#SCROLL 1.75
#GOGOSTART
122202102102102102122202,
100202100102122202102102,
122202102102122102102202,
102200122202102100102202,
102200122202102200403000,//12
#GOGOEND
100100200202102101202002,
100100202202102100202202,
100100202202102101202202,
100100202202102100403000,
100100200202102101202002,
100000100000200000220020100010100010200020000020,
100102002200101102202002,
100102200202101102202202,
100100200101101200100100,
300300300300300000002202,//22
#GOGOSTART
100102002202102102002201,
101102002202102101000201,
100010200020100010200011100010100000200010000010,
100000100000200020200011100010100000200030000000,
100102002202102102000202,
100000100000200000200011100010100000200010200020,
100010200020100010200020500000000000000008000000,
101202101202100101202001,
100101200100002100201202,
100000200020200000200020100010100000200020200011,
101100200101201102203000,
100200102202122200100202,
100200100202122200122202,
100202102102122202102100,
300300304000300000000000,//37
#GOGOEND
#END
COURSE:Hard
LEVEL:6
SCOREINIT:730
SCOREDIFF:210
#START
#MEASURE 1/4
#SCROLL 1.75
#BARLINEOFF
,
#MEASURE 4/4
#BARLINEON
100202000000100202000200,
100000100000200000200050000000000800000020200020,
100000000000200000200000500000000000000008000000,
100000100000100002002002,
100100200200000000002202,
0220,//7
#GOGOSTART
300102200200100100200100,
100102200200100200100100,
100102200200100100200100,
100102200200100200100100,
100102200100100000403000,//12
#GOGOEND
100000200000101100202000,
100100200000101100202200,
100100200000101100202200,
100100200000101100403000,
400000200000101100202000,
100100200000101100202200,
100100200001101100202200,
100100200001101100202200,
100100200101100200100000,
33333000,//22
#GOGOSTART
300202001101100202001101,
100202001101100202000100,
100100200200100000101000,
500000000800000010100010000000000000000030000000,
300202001101100202000100,
100000100000200000200050000000000800000010100010,
100000000000100000100000500000000000000008000000,
100100200200100001001001,
11210120,
100000100001100100100100,
000000500000000000000000000800000020200030000000,
100102200200100100200100,
100102200200100200100101,
100102200200100100200100,
300300304000300000000000,//37
#GOGOEND
,
#END
COURSE:Normal
LEVEL:5
BALLOON:11
#START
#MEASURE 1/4
#SCROLL 1.75
#BARLINEOFF
,
#MEASURE 4/4
#BARLINEON
100101000100100101000000,
100000000000100000000050000000000800000000000000,
100000000000100000100000500000000000000000000008,
00000011,
500000000000000000000008000000000000000000000000,
1110,//7
#GOGOSTART
11221010,
11221010,
11221010,
11221010,
100000100100100000403000,//12
#GOGOEND
30201120,
10201120,
10201120,
100000200000100100403000,
30201120,
10201120,
10201120,
10201120,
10201120,
33333000,//22
#GOGOSTART
300101000100100101000000,
200202000200200202000000,
300300300110,
700000000000000800003000,
300101000100100101000000,
100000000000100000000000500000000008000000000000,
300000000000300000300000600000000000000008000000,
10101011,
500000000000000000000008000000000000000000000000,
10101111,
000005000000000000000000000000000800000030000000,
11221010,
11221010,
11221010,
300300304000300000000000,//37
#GOGOEND
,
#END
COURSE:Easy
LEVEL:3
BALLOON:10
#START
#MEASURE 1/4
#SCROLL 1.75
#BARLINEOFF
,
#MEASURE 4/4
#BARLINEON
11,
100000000000100000000000500000000008000000000000,
100000000000100000000000500000000000000000000008,
0001,
500000000000000000000008000000000000000000000000,
11,//7
#GOGOSTART
11101010,
11102020,
11101010,
11102020,
100100100330,//12
#GOGOEND
30001100,
10001100,
10001100,
100000100330,
30001100,
10001100,
10001100,
10001100,
10001100,
33333000,//22
#GOGOSTART
31011100,
11011100,
3330,
7008,
31011100,
1158,
300000000000300000000000600000000000000000000008,
0001,
58,
10101111,
05000080,
11101010,
11102020,
11101010,
300300303000300000000000,//37
#GOGOEND
,
#END