Files
ESE/01 Pop/Star Mine/Star Mine.tja
T
2023-07-06 03:20:33 -04:00

308 lines
3.0 KiB
Plaintext

TITLE:Star Mine
TITLEJA:スターマイン
SUBTITLE:--Da-iCE
SUBTITLEJA:Da-iCE
BPM:132
WAVE:Star Mine.ogg
OFFSET:-0.873
DEMOSTART:71.971
COURSE:Oni
LEVEL:7
BALLOON:6,12,12,7,8,9
SCOREINIT:720
SCOREDIFF:188
#START
3000101010020010,
02111020,
3000101030020010,
0020101110002000,
3000102030020010,
32111020,
1111202011111020,
7000000000802210,
1002101110221020,
1022101110102220,
1002101110221020,
1022101110222020,
1002101110221020,
1022101110102220,
1002101110102010,
200000000200000200200200200000202020200000000000,
1010201110102020,
1001201010102020,
1011102010111020,
1001201020201101,
2010110120101020,
1010101020101101,
2010102220101022,
1010101120221000,
10012011,
21102011,
1000001020010010,
2002101020012110,
10112011,
20111212,
1022102010012010,
70000820,
3000101010020010,
02111020,
3000101030020010,
0020101110002000,
3000302030021010,
2011102011102220,
1111202011111020,
70000800,
#GOGOSTART
3001102211201102,
1011102210102220,
1001102211201102,
1020110210104000,
3000302030021010,
2011102011102220,
1111202011111020,
3040304030221020,
70087008,
700000000000800222200000,
#GOGOEND
1002102010202010,
0010201110102020,
1002102010101030,
02020220,
,
,
#END
COURSE:Hard
LEVEL:5
BALLOON:6,9,13,7,8,9
SCOREINIT:760
SCOREDIFF:210
#START
3000101010010010,
02111020,
3000101030010010,
02111020,
3000100030010010,
32111020,
1010101020222020,
70000800,
1000101110102010,
1010201110102000,
1000101110102010,
1010201110202000,
1000101110102010,
1010201110102000,
1000101110102010,
2000000020222000,
11101110,
1001001000202000,
11101110,
1001001000202000,
21102110,
11112010,
21102110,
11112020,
10002001,
21102000,
10002001,
21102020,
10111011,
10111110,
10001001,
70000800,
3000101010010010,
02111020,
3000101030010010,
02111020,
3000302030010010,
1020101110102000,
9,
8,
#GOGOSTART
3001101011102001,
1010101110102000,
1001101011102001,
1000101110102000,
3000301030111010,
1020101110102000,
1010101020222020,
600000000000000000000008000000000000000000000000,
70087008,
70000800,
#GOGOEND
1000101110102010,
0010001110102000,
1000101110101030,
02020220,
,
,
#END
COURSE:Normal
LEVEL:4
BALLOON:4,5,6,6,9,7,8,9
SCOREINIT:1200
SCOREDIFF:490
#START
3000000010010010,
01,
3000000030010010,
01,
33,
3110,
70087008,
70000800,
1110,
11,
1110,
12,
1110,
11,
1110,
2,
1110,
10010000,
1110,
10010000,
22,
1110,
22,
1110,
12,
02,
12,
22,
1110,
1110,
1110,
70000800,
3000000010010010,
01,
3000000030010010,
01,
3000300030010010,
1110,
9,
8,
#GOGOSTART
3111,
10111020,
1111,
10111020,
3000300030010010,
10111000,
11101110,
600000000000000000000008000000000000000000000000,
70087008,
70000800,
#GOGOEND
10002001,
00020000,
10002003,
,
,
,
#END
COURSE:Easy
LEVEL:3
BALLOON:4,5,6,5,7,9
SCOREINIT:1030
SCOREDIFF:650
#START
30001001,
01,
30003001,
01,
33,
31,
70087008,
70000800,
11,
1,
11,
2,
11,
1,
11,
2,
11,
1,
11,
1,
22,
2,
11,
1110,
02,
02,
02,
02,
11,
11,
11,
70000800,
30001001,
01,
30003001,
01,
3330,
11,
9,
8,
#GOGOSTART
1111,
12,
1111,
12,
3330,
1110,
1111,
600000000000000000000008000000000000000000000000,
11,
70000800,
#GOGOEND
10000001,
00000000,
10000003,
,
,
,
#END