300 lines
9.5 KiB
Plaintext
300 lines
9.5 KiB
Plaintext
//TJADB Project
|
|
TITLE:Sunny Day Sunday
|
|
TITLEJA:Sunny Day Sunday
|
|
SUBTITLE:--Sentimental Bus
|
|
BPM:170
|
|
WAVE:Sunny Day Sunday.ogg
|
|
OFFSET:-0.201
|
|
DEMOSTART:14.105
|
|
|
|
COURSE:Oni
|
|
LEVEL:7
|
|
|
|
|
|
#START
|
|
|
|
|
|
#BARLINEOFF
|
|
,
|
|
#MEASURE 1/3
|
|
#BPMCHANGE 210
|
|
2,
|
|
#MEASURE 3/4
|
|
#BPMCHANGE 170
|
|
,
|
|
#MEASURE 4/4
|
|
,
|
|
,
|
|
,
|
|
#MEASURE 7/8
|
|
,
|
|
#BARLINEON
|
|
#MEASURE 4/4
|
|
100010001000100010001000100000000000200000000000,
|
|
100010001000100010001000100000000000200000000000,
|
|
100020002000100020002000100020002000100000000000,
|
|
300000000000400000000000100010001000400000000000,
|
|
100000000000100000001000200000001000200000001000,
|
|
100000002000200000002000200000000000000000000000,
|
|
100000000000100000001000200000001000200000001000,
|
|
100000002000200000002000200000000000000000000000,
|
|
100000000000100000001000200000001000200000001000,
|
|
100010001000100000000000300000000000000000000000,
|
|
100000001000200000002000100000001000200000001000,
|
|
100000000000100000000000100000000000100000000000,
|
|
100010001000100010001000100000000000400000000000,
|
|
100000001000200000001000100020001000100000001000,
|
|
100000001000200000001000100020001000200000000000,
|
|
100000001000200000001000100020001000100000001000,
|
|
100000001000200000001000100020001000200000000000,
|
|
100020001000100000000000100020001000100000000000,
|
|
100020001000100020001000200000000000000000000000,
|
|
300000001000100020001000300000001000100020001000,
|
|
300000000000100000000000100010001000100010001000,
|
|
100000001000200000001000100000001000200000002000,
|
|
100000001000200000001000100010001000200000000000,
|
|
100000001000200000001000100000001000200000002000,
|
|
100000001000200000001000100010001000200000000000,
|
|
100000001000200000001000100000001000200000002000,
|
|
100000001000200000001000100010001000200000000000,
|
|
300000000000000000000000300000000000000000000000,
|
|
100000000000100000000000100010001000100000000000,
|
|
100010001000100010001000100000000000200000000000,
|
|
100010001000100010001000100000000000200000000000,
|
|
100020002000100020002000100020002000100000001000,
|
|
300000000000400000000000100010001000400000000000,
|
|
100000000000100000001000200000001000200000001000,
|
|
100000002000200000002000200000000000000000000000,
|
|
100000000000100000001000200000001000200000001000,
|
|
100000002000200000002000200000000000000000000000,
|
|
100000000000100000001000200000001000200000001000,
|
|
100010001000100000000000300000000000000000000000,
|
|
100000001000200000002000100000001000200000001000,
|
|
100000000000100000000000100000000000100000000000,
|
|
#MEASURE 3/4
|
|
100010001000100010001000100000000000,
|
|
#BARLINEOFF
|
|
#MEASURE 2/3
|
|
#BPMCHANGE 452.2
|
|
4,
|
|
|
|
|
|
#END
|
|
|
|
|
|
COURSE:Hard
|
|
LEVEL:3
|
|
SCOREINIT:940
|
|
SCOREDIFF:250
|
|
|
|
|
|
#START
|
|
|
|
|
|
#BARLINEOFF
|
|
,
|
|
#MEASURE 1/3
|
|
#BPMCHANGE 226.1
|
|
2,
|
|
#MEASURE 3/4
|
|
#BPMCHANGE 170
|
|
,
|
|
#MEASURE 4/4
|
|
,
|
|
,
|
|
,
|
|
#MEASURE 7/8
|
|
,
|
|
#BARLINEON
|
|
#MEASURE 4/4
|
|
100010001000100010001000100000000000200000000000,
|
|
100010001000100010001000100000000000200000000000,
|
|
100000000000100000000000100000001000100000001000,
|
|
100000000000100000000000300000000000300000000000,
|
|
100000000000100000000000100000001000100000001000,
|
|
100000000000200000002000200000000000000000000000,
|
|
100000000000100000000000100000001000100000001000,
|
|
100000000000200000002000200000000000000000000000,
|
|
100000000000100000000000100000001000100000000000,
|
|
500000000000000080000000300000000000000000000000,
|
|
100000000000100000000000200000000000200000000000,
|
|
100000000000100000000000100000000000100000000000,
|
|
100010001000100010001000100000000000200000000000,
|
|
100000000000100000000000100000001000100000000000,
|
|
100000000000100000000000100000001000100000000000,
|
|
100000000000200000000000100000001000100000000000,
|
|
100000000000200000000000100000001000100000000000,
|
|
100000000000100000000000100000002000100000000000,
|
|
100000000000100000000000100000000000000000000000,
|
|
300000000000000000000000300000000000000000000000,
|
|
300000000000000000000000100010001000100010001000,
|
|
100000000000200000000000100000001000200000000000,
|
|
100000000000200000000000100000001000200000000000,
|
|
100000000000200000000000100000001000200000000000,
|
|
100000000000200000000000100000001000200000000000,
|
|
100000000000200000000000100000001000200000000000,
|
|
100000000000200000000000100000001000200000000000,
|
|
300000000000000000000000300000000000000000000000,
|
|
100000000000100000000000100000000000100000000000,
|
|
100010001000100010001000100000000000200000000000,
|
|
100010001000100010001000100000000000200000000000,
|
|
100000000000100000000000100000001000100000001000,
|
|
100000000000100000000000300000000000300000000000,
|
|
100000000000100000000000100000001000100000001000,
|
|
100000000000200000002000200000000000000000000000,
|
|
100000000000100000000000100000001000100000001000,
|
|
100000000000200000002000200000000000000000000000,
|
|
100000000000100000001000100000001000100000000000,
|
|
500000000000000080000000300000000000000000000000,
|
|
100000000000100000000000200000000000200000000000,
|
|
100000000000100000000000100000000000100000000000,
|
|
100010001000100010001000100000000000400000000000,
|
|
|
|
|
|
#END
|
|
|
|
|
|
COURSE:Normal
|
|
LEVEL:3
|
|
SCOREINIT:1390
|
|
SCOREDIFF:460
|
|
|
|
|
|
#START
|
|
|
|
|
|
#BARLINEOFF
|
|
,
|
|
#MEASURE 1/3
|
|
#BPMCHANGE 226.1
|
|
2,
|
|
#MEASURE 3/4
|
|
#BPMCHANGE 170
|
|
,
|
|
#MEASURE 4/4
|
|
,
|
|
,
|
|
,
|
|
#MEASURE 7/8
|
|
,
|
|
#BARLINEON
|
|
#MEASURE 4/4
|
|
100000000000100000001000100000000000000000000000,
|
|
100000000000100000001000100000000000000000000000,
|
|
100000000000100000000000100000000000000000000000,
|
|
300000000000300000000000300000000000000000000000,
|
|
100000000000100000000000200000000000000000000000,
|
|
100000000000100000001000100000000000000000000000,
|
|
100000000000100000000000200000000000000000000000,
|
|
100000000000100000001000100000000000000000000000,
|
|
100000000000100000000000200000000000200000000000,
|
|
500000000000000000008000000000000000000000000000,
|
|
100000000000100000000000200000000000200000000000,
|
|
500000000000000000000000000000008000000000000000,
|
|
100000000000100000000000100000000000000000000000,
|
|
100000000000100000001000100000000000000000000000,
|
|
100000000000100000001000100000000000000000000000,
|
|
100000000000100000000000200000000000000000000000,
|
|
100000000000100000001000100000000000000000000000,
|
|
100000000000200000000000100000000000200000000000,
|
|
100000000000200000000000100000000000000000000000,
|
|
300000000000000000000000300000000000000000000000,
|
|
500000000000000000000000000000008000000000000000,
|
|
100000000000100000001000100000000000000000000000,
|
|
100000000000100000000000200000000000000000000000,
|
|
100000000000100000001000100000000000000000000000,
|
|
100000000000100000000000200000000000000000000000,
|
|
100000000000100000001000100000000000000000000000,
|
|
100000000000100000000000200000000000000000000000,
|
|
300000000000000000000000300000000000000000000000,
|
|
100000000000100000000000100000000000000000000000,
|
|
100000000000100000001000100000000000000000000000,
|
|
100000000000100000001000100000000000000000000000,
|
|
100000000000100000000000100000000000100000000000,
|
|
300000000000300000000000300000000000000000000000,
|
|
100000000000100000000000200000000000000000000000,
|
|
100000000000100000001000100000000000000000000000,
|
|
100000000000100000000000200000000000000000000000,
|
|
100000000000100000001000100000000000000000000000,
|
|
100000000000100000000000200000000000200000000000,
|
|
300000000000000000000000300000000000000000000000,
|
|
100000000000100000000000200000000000200000000000,
|
|
500000000000000000000000000000008000000000000000,
|
|
100000000000100000000000100000000000400000000000,
|
|
|
|
|
|
#END
|
|
|
|
|
|
COURSE:Easy
|
|
LEVEL:4
|
|
SCOREINIT:1230
|
|
SCOREDIFF:440
|
|
|
|
|
|
#START
|
|
|
|
|
|
#BARLINEOFF
|
|
,
|
|
#MEASURE 1/3
|
|
#BPMCHANGE 226.1
|
|
2,
|
|
#MEASURE 3/4
|
|
#BPMCHANGE 170
|
|
,
|
|
#MEASURE 4/4
|
|
,
|
|
,
|
|
,
|
|
#MEASURE 7/8
|
|
,
|
|
#BARLINEON
|
|
#MEASURE 4/4
|
|
100000000000100000000000100000000000000000000000,
|
|
100000000000100000000000100000000000000000000000,
|
|
100000000000100000000000100000000000000000000000,
|
|
300000000000300000000000300000000000000000000000,
|
|
100000000000100000000000100000000000100000000000,
|
|
100000000000200000000000200000000000000000000000,
|
|
100000000000100000000000100000000000100000000000,
|
|
100000000000200000000000200000000000000000000000,
|
|
100000000000100000000000100000000000100000000000,
|
|
100000000000000000000000100000000000000000000000,
|
|
100000000000100000000000100000000000100000000000,
|
|
500000000000000000000000000000800000000000000000,
|
|
100000000000100000000000100000000000000000000000,
|
|
100000000000100000000000100000000000000000000000,
|
|
100000000000100000000000100000000000000000000000,
|
|
100000000000100000000000100000000000000000000000,
|
|
100000000000100000000000200000000000000000000000,
|
|
100000000000100000000000100000000000000000000000,
|
|
100000000000100000000000200000000000000000000000,
|
|
300000000000000000000000300000000000000000000000,
|
|
500000000000000000000000000000800000000000000000,
|
|
100000000000100000000000100000000000000000000000,
|
|
100000000000100000000000100000000000000000000000,
|
|
100000000000100000000000100000000000000000000000,
|
|
100000000000100000000000100000000000000000000000,
|
|
100000000000100000000000100000000000000000000000,
|
|
100000000000100000000000100000000000000000000000,
|
|
300000000000000000000000300000000000000000000000,
|
|
100000000000100000000000100000000000000000000000,
|
|
100000000000100000000000100000000000000000000000,
|
|
100000000000100000000000100000000000000000000000,
|
|
100000000000100000000000100000000000000000000000,
|
|
300000000000300000000000300000000000000000000000,
|
|
100000000000100000000000100000000000100000000000,
|
|
100000000000200000000000200000000000000000000000,
|
|
100000000000100000000000100000000000100000000000,
|
|
100000000000200000000000200000000000000000000000,
|
|
100000000000100000000000100000000000100000000000,
|
|
100000000000000000000000100000000000000000000000,
|
|
100000000000100000000000100000000000100000000000,
|
|
500000000000000000000000000000800000000000000000,
|
|
100000000000100000000000100000000000300000000000,
|
|
|
|
|
|
#END
|
|
|