454 lines
4.3 KiB
Plaintext
454 lines
4.3 KiB
Plaintext
//TJADB Project
|
|
TITLE:TEMPLATE
|
|
TITLEJA:TEMPLATE
|
|
SUBTITLE:--Hoshimachi Suisei
|
|
SUBTITLEJA:星街すいせい
|
|
BPM:200
|
|
WAVE:TEMPLATE.ogg
|
|
OFFSET:-0.749
|
|
DEMOSTART:81.749
|
|
|
|
COURSE:Oni
|
|
LEVEL:8
|
|
BALLOON:14,5
|
|
SCOREINIT:1560
|
|
SCOREDIFF:0
|
|
|
|
|
|
#START
|
|
|
|
|
|
#BARLINEOFF
|
|
,
|
|
,
|
|
,
|
|
0000000
|
|
|
|
#GOGOSTART
|
|
1,
|
|
#BARLINEON
|
|
0010201110102010,
|
|
1110201010102010,
|
|
0010201110102010,
|
|
1111202210102010,
|
|
0010201110102010,
|
|
1110201010102010,
|
|
0010201110102010,
|
|
1122201010111030,
|
|
|
|
#GOGOEND
|
|
00101211,
|
|
0010100010201011,
|
|
11121211,
|
|
0010100011201010,
|
|
01121110,
|
|
1000102011201011,
|
|
11121110,
|
|
1000102010111030,
|
|
00101211,
|
|
0010102010201011,
|
|
11121211,
|
|
0010222011201010,
|
|
01121211,
|
|
0010222011201011,
|
|
11101211,
|
|
0010102010201110,
|
|
20002022,
|
|
02002221,
|
|
02070000,
|
|
08,
|
|
|
|
#GOGOSTART
|
|
#BPMCHANGE 100
|
|
300000202020100000200100
|
|
|
|
#GOGOEND
|
|
200100000100200100000100,
|
|
102020100000200000100000200100000100202020102020,
|
|
500000000000000000000000000000000000000008000000,
|
|
102020100100200100000100100200100100200100100000,
|
|
|
|
#GOGOSTART
|
|
300000202020100000200100
|
|
|
|
#GOGOEND
|
|
200100000100200100000100,
|
|
102020100000200000100100200000200100202020100000,
|
|
300000102020100000100100200100000100200100000100,
|
|
102020100100200100100100200000100100200100000200,
|
|
0002,
|
|
22,
|
|
1000100121010101,
|
|
1010101021010120,
|
|
500000000000000000000000000000000000000008000000,
|
|
102020100100200100000100200100100200100100000000,
|
|
|
|
#GOGOSTART
|
|
300000202020100000200100
|
|
|
|
#GOGOEND
|
|
200100000100200100000100,
|
|
102020100000200000100100200000200100202020100000,
|
|
500000000000000000000000000000000000000008000000,
|
|
102020100100200100000100100200100100200100100200,
|
|
|
|
#GOGOSTART
|
|
#BPMCHANGE 200
|
|
1011201010112010,
|
|
1110201110102010,
|
|
1011202010112020,
|
|
1111201010002020,
|
|
1011201010112010,
|
|
1110201110102010,
|
|
1120201120201120,
|
|
7000008010111010,
|
|
1011201010112010,
|
|
1110201110102010,
|
|
1011202010112020,
|
|
1111201111202020,
|
|
1022102210221110,
|
|
10302222,
|
|
|
|
#GOGOEND
|
|
02202202,
|
|
20220202,
|
|
02202202,
|
|
21212213,
|
|
|
|
|
|
#END
|
|
|
|
|
|
COURSE:Hard
|
|
LEVEL:6
|
|
BALLOON:13,9,18
|
|
SCOREINIT:3070
|
|
SCOREDIFF:0
|
|
|
|
|
|
#START
|
|
|
|
|
|
#BARLINEOFF
|
|
,
|
|
,
|
|
,
|
|
0000000
|
|
|
|
#GOGOSTART
|
|
1,
|
|
#BARLINEON
|
|
01101020,
|
|
10111021,
|
|
01101020,
|
|
20222201,
|
|
01101020,
|
|
10111021,
|
|
01101020,
|
|
11101103,
|
|
|
|
#GOGOEND
|
|
00102011,
|
|
01101201,
|
|
01112010,
|
|
00101201,
|
|
01101210,
|
|
00112011,
|
|
01112010,
|
|
10112203,
|
|
00102011,
|
|
01112101,
|
|
01112010,
|
|
00101201,
|
|
01102111,
|
|
00112101,
|
|
00101201,
|
|
00112110,
|
|
10002022,
|
|
02007000,
|
|
,
|
|
8,
|
|
|
|
#GOGOSTART
|
|
#BPMCHANGE 100
|
|
30001000
|
|
|
|
#GOGOEND
|
|
22020200,
|
|
1010100022020220,
|
|
500000000000000000000000000000000000000008000000,
|
|
1022220010102200,
|
|
|
|
#GOGOSTART
|
|
30001000
|
|
|
|
#GOGOEND
|
|
22020200,
|
|
1010100020220220,
|
|
3010201101020200,
|
|
1011022010110202,
|
|
0002,
|
|
22,
|
|
12,
|
|
1240,
|
|
500000000000000000000000000000000000000008000000,
|
|
0022220010102200,
|
|
|
|
#GOGOSTART
|
|
30001000
|
|
|
|
#GOGOEND
|
|
22020200,
|
|
1010100020220220,
|
|
500000000000000000000000000000000000000008000000,
|
|
1011011022201020,
|
|
|
|
#GOGOSTART
|
|
#BPMCHANGE 200
|
|
10111020,
|
|
10111020,
|
|
1211,
|
|
10201011,
|
|
10111020,
|
|
10111020,
|
|
7,
|
|
8022,
|
|
10111020,
|
|
10111020,
|
|
1211,
|
|
10201011,
|
|
9,
|
|
00000008,
|
|
|
|
#GOGOEND
|
|
,
|
|
00000002,
|
|
,
|
|
20202023,
|
|
|
|
|
|
#END
|
|
|
|
|
|
COURSE:Normal
|
|
LEVEL:5
|
|
BALLOON:11,6,5,7,13
|
|
SCOREINIT:5240
|
|
SCOREDIFF:0
|
|
|
|
|
|
#START
|
|
|
|
|
|
#BARLINEOFF
|
|
,
|
|
,
|
|
,
|
|
0000000
|
|
|
|
#GOGOSTART
|
|
1,
|
|
#BARLINEON
|
|
01,
|
|
10111001,
|
|
01,
|
|
20222001,
|
|
01,
|
|
10111001,
|
|
01,
|
|
11101103,
|
|
|
|
#GOGOEND
|
|
0101,
|
|
0101,
|
|
0101,
|
|
00101101,
|
|
0101,
|
|
0101,
|
|
0121,
|
|
20101103,
|
|
0101,
|
|
0101,
|
|
0101,
|
|
00101101,
|
|
0101,
|
|
0101,
|
|
0101,
|
|
0121,
|
|
20002022,
|
|
02007000,
|
|
,
|
|
8,
|
|
|
|
#GOGOSTART
|
|
#BPMCHANGE 100
|
|
31
|
|
|
|
#GOGOEND
|
|
12,
|
|
11102020,
|
|
500000000000000000000000000000000000000008000000,
|
|
,
|
|
|
|
#GOGOSTART
|
|
31
|
|
|
|
#GOGOEND
|
|
12,
|
|
11102020,
|
|
31102020,
|
|
11107008,
|
|
,
|
|
22,
|
|
12,
|
|
1220,
|
|
500000000000000000000000000000000000000008000000,
|
|
,
|
|
|
|
#GOGOSTART
|
|
31
|
|
|
|
#GOGOEND
|
|
12,
|
|
11102020,
|
|
500000000000000000000000000000000000000008000000,
|
|
00007008,
|
|
|
|
#GOGOSTART
|
|
#BPMCHANGE 200
|
|
1120,
|
|
10111000,
|
|
1122,
|
|
1011,
|
|
1012,
|
|
1122,
|
|
7,
|
|
8011,
|
|
1120,
|
|
10111000,
|
|
1122,
|
|
1211,
|
|
9,
|
|
00000008,
|
|
|
|
#GOGOEND
|
|
,
|
|
00000002,
|
|
,
|
|
20002003,
|
|
|
|
|
|
#END
|
|
|
|
|
|
COURSE:Easy
|
|
LEVEL:3
|
|
BALLOON:9,6,11
|
|
SCOREINIT:11860
|
|
SCOREDIFF:0
|
|
|
|
|
|
#START
|
|
|
|
|
|
#BARLINEOFF
|
|
,
|
|
,
|
|
,
|
|
0000000
|
|
|
|
#GOGOSTART
|
|
1,
|
|
#BARLINEON
|
|
,
|
|
10000001,
|
|
,
|
|
10000001,
|
|
,
|
|
10000001,
|
|
,
|
|
10000003,
|
|
|
|
#GOGOEND
|
|
01,
|
|
00000001,
|
|
01,
|
|
00000001,
|
|
01,
|
|
00000001,
|
|
,
|
|
10000003,
|
|
01,
|
|
00000001,
|
|
01,
|
|
00000001,
|
|
01,
|
|
00000001,
|
|
00000001,
|
|
,
|
|
2,
|
|
07,
|
|
,
|
|
8,
|
|
|
|
#GOGOSTART
|
|
#BPMCHANGE 100
|
|
31
|
|
|
|
#GOGOEND
|
|
10,
|
|
1110,
|
|
500000000000000000000000000000000000000008000000,
|
|
,
|
|
|
|
#GOGOSTART
|
|
31
|
|
|
|
#GOGOEND
|
|
10,
|
|
1110,
|
|
3110,
|
|
21,
|
|
,
|
|
2,
|
|
1,
|
|
12,
|
|
500000000000000000000000000000000000000008000000,
|
|
,
|
|
|
|
#GOGOSTART
|
|
31
|
|
|
|
#GOGOEND
|
|
10,
|
|
1110,
|
|
500000000000000000000000000000000000000008000000,
|
|
,
|
|
|
|
#GOGOSTART
|
|
#BPMCHANGE 200
|
|
11,
|
|
1,
|
|
11,
|
|
1,
|
|
1,
|
|
1,
|
|
7,
|
|
8,
|
|
11,
|
|
1,
|
|
11,
|
|
01,
|
|
9,
|
|
00000008,
|
|
|
|
#GOGOEND
|
|
,
|
|
,
|
|
,
|
|
00000003,
|
|
|
|
|
|
#END
|
|
|