652 lines
6.8 KiB
Plaintext
652 lines
6.8 KiB
Plaintext
//TJADB Project
|
|
TITLE:The Loco-Motion
|
|
TITLEJA:The Loco-Motion
|
|
SUBTITLE:--Kylie Minogue
|
|
BPM:129.067
|
|
WAVE:The Loco-Motion.ogg
|
|
OFFSET:-3.662
|
|
DEMOSTART:35.012
|
|
|
|
COURSE:Oni
|
|
LEVEL:7
|
|
|
|
STYLE:Double
|
|
BALLOON:12,12,24,28
|
|
|
|
|
|
#START P1
|
|
|
|
|
|
,
|
|
7008,
|
|
0022202000222020,
|
|
7008,
|
|
0022202000222020,
|
|
1001102010022020,
|
|
1001102010022020,
|
|
0011202011202000,
|
|
0011202011202000,
|
|
1000100010022020,
|
|
1000100010022020,
|
|
0011202011202000,
|
|
0011202011202000,
|
|
1020122012021000,
|
|
1020122012021000,
|
|
500000000000000008000000100000000000200000000000,
|
|
500000000000000008000000200000000000200000000000,
|
|
33033070,
|
|
,
|
|
0800,
|
|
3434,
|
|
1020122012202000,
|
|
1020122012202000,
|
|
1020122012021000,
|
|
1020122012021000,
|
|
1022200010222000,
|
|
1022200000000000,
|
|
1122,
|
|
1000100010222020,
|
|
0011202011202010,
|
|
0011202011202000,
|
|
1011101010202000,
|
|
1011101010222020,
|
|
0011202011202010,
|
|
0011202011202000,
|
|
500000000000000008000000100000000000200000000000,
|
|
500000000000000008000000200000000000200000000000,
|
|
1022102212221020,
|
|
1020122012121220,
|
|
33033070,
|
|
,
|
|
0800,
|
|
|
|
|
|
#END
|
|
|
|
|
|
#START P2
|
|
|
|
|
|
,
|
|
7008,
|
|
0022202000222020,
|
|
7008,
|
|
0022202000222020,
|
|
1000100010022020,
|
|
1000100010022020,
|
|
0011202011202000,
|
|
0011202011202000,
|
|
1001102010022020,
|
|
1001102010022020,
|
|
0011202011202000,
|
|
0011202011202000,
|
|
500000000000000008000000100000000000200000000000,
|
|
500000000000000008000000200000000000200000000000,
|
|
1020122012221020,
|
|
1020122012221020,
|
|
33033070,
|
|
,
|
|
0800,
|
|
3434,
|
|
1020122012202000,
|
|
1020122012202000,
|
|
1020122012021000,
|
|
1020122012021000,
|
|
1022200010222000,
|
|
1022200000000000,
|
|
1011101010202000,
|
|
1011101010222020,
|
|
0011202011202010,
|
|
0011202011202000,
|
|
1122,
|
|
1000100010222020,
|
|
0011202011202010,
|
|
0011202011202000,
|
|
1022102212221020,
|
|
1020122012121220,
|
|
500000000000000008000000100000000000200000000000,
|
|
500000000000000008000000200000000000200000000000,
|
|
33033070,
|
|
,
|
|
0800,
|
|
|
|
|
|
#END
|
|
|
|
|
|
STYLE:Single
|
|
BALLOON:12,12,24,28
|
|
|
|
|
|
#START
|
|
|
|
,
|
|
7008,
|
|
0022202000222020,
|
|
7008,
|
|
0022202000222020,
|
|
1001102010022020,
|
|
1001102010022020,
|
|
0011202011202000,
|
|
0011202011202000,
|
|
1001102010022020,
|
|
1001102010022020,
|
|
0011202011202000,
|
|
0011202011202000,
|
|
1020122012021000,
|
|
1020122012021000,
|
|
1020122012221020,
|
|
1020122012221020,
|
|
34034070,
|
|
,
|
|
0800,
|
|
3434,
|
|
1020122012202000,
|
|
1020122012202000,
|
|
1022200010222000,
|
|
1022200000000000,
|
|
1011101010202000,
|
|
1011101010222020,
|
|
0011202011202010,
|
|
0011202011202000,
|
|
1011101010202000,
|
|
1011101010222020,
|
|
0011202011202010,
|
|
0011202011202000,
|
|
1022102212221020,
|
|
1020122012121220,
|
|
1022102212221020,
|
|
1020122012121220,
|
|
34034070,
|
|
,
|
|
0800,
|
|
|
|
|
|
#END
|
|
|
|
|
|
COURSE:Hard
|
|
LEVEL:5
|
|
|
|
STYLE:Double
|
|
BALLOON:10,10,18
|
|
SCOREINIT:1250
|
|
|
|
|
|
#START P1
|
|
|
|
|
|
,
|
|
7008,
|
|
,
|
|
7008,
|
|
,
|
|
10101120,
|
|
10110122,
|
|
02212204,
|
|
0222,
|
|
11102020,
|
|
10110122,
|
|
02212204,
|
|
0222,
|
|
1020122012011000,
|
|
1020122012022000,
|
|
10101011,
|
|
10111020,
|
|
30030050,
|
|
,
|
|
8,
|
|
3434,
|
|
2020222022200000,
|
|
2020222022200000,
|
|
0000222022022000,
|
|
0000222022022000,
|
|
12201000,
|
|
12201000,
|
|
11102022,
|
|
10110122,
|
|
01121104,
|
|
00222020,
|
|
10101122,
|
|
10110122,
|
|
01121104,
|
|
00222020,
|
|
10101011,
|
|
10111020,
|
|
1020122012011000,
|
|
1020122020222000,
|
|
33033050,
|
|
0008,
|
|
700000000000000000000000000000000000000000000008,
|
|
|
|
|
|
#END
|
|
|
|
|
|
#START P2
|
|
|
|
|
|
,
|
|
7008,
|
|
,
|
|
7008,
|
|
11102020,
|
|
10110122,
|
|
01121104,
|
|
0222,
|
|
10101120,
|
|
10110122,
|
|
01121104,
|
|
0222,
|
|
10101011,
|
|
10111020,
|
|
1020122012011000,
|
|
1020122012022000,
|
|
30030050,
|
|
,
|
|
8,
|
|
3434,
|
|
0000222022200000,
|
|
2020222022022000,
|
|
2020222022022000,
|
|
12201000,
|
|
12201000,
|
|
10101122,
|
|
10110122,
|
|
02212204,
|
|
00222020,
|
|
11102022,
|
|
10110122,
|
|
02212204,
|
|
00222020,
|
|
1020122012011000,
|
|
1020122020222000,
|
|
10101011,
|
|
10111020,
|
|
33033050,
|
|
0008,
|
|
700000000000000000000000000000000000000000000008,
|
|
|
|
|
|
|
|
#END
|
|
|
|
|
|
STYLE:Single
|
|
BALLOON:10,10,16
|
|
SCOREINIT:1130
|
|
SCOREDIFF:300
|
|
|
|
|
|
#START
|
|
|
|
|
|
,
|
|
7008,
|
|
,
|
|
7008,
|
|
10101120,
|
|
10110122,
|
|
01121102,
|
|
0222,
|
|
10101120,
|
|
10110122,
|
|
01121102,
|
|
0222,
|
|
1020122012011000,
|
|
1020122012022000,
|
|
1020122012011000,
|
|
1020122012022000,
|
|
30030050,
|
|
,
|
|
8,
|
|
3434,
|
|
2020222022200000,
|
|
2020222022200000,
|
|
2020222022022000,
|
|
2020222022022000,
|
|
12201000,
|
|
12201000,
|
|
10101122,
|
|
10110122,
|
|
01121102,
|
|
00222020,
|
|
10101122,
|
|
10110122,
|
|
01121102,
|
|
00222020,
|
|
1020122012011000,
|
|
1020122020222000,
|
|
1020122012011000,
|
|
1020122020222000,
|
|
34034050,
|
|
0008,
|
|
700000000000000000000000000000000000000000000008,
|
|
|
|
|
|
#END
|
|
|
|
|
|
COURSE:Normal
|
|
LEVEL:3
|
|
|
|
STYLE:Double
|
|
BALLOON:12
|
|
SCOREINIT:1450
|
|
|
|
|
|
#START P1
|
|
|
|
|
|
,
|
|
1120,
|
|
10102220,
|
|
1120,
|
|
10102220,
|
|
10101110,
|
|
10110100,
|
|
01101102,
|
|
0222,
|
|
1022,
|
|
10110100,
|
|
01101102,
|
|
0222,
|
|
11102020,
|
|
11102000,
|
|
0202,
|
|
11020000,
|
|
11102020,
|
|
11102000,
|
|
0202,
|
|
11020000,
|
|
30030050,
|
|
,
|
|
8,
|
|
43,
|
|
22022000,
|
|
22022000,
|
|
0101,
|
|
0101,
|
|
20222000,
|
|
20222000,
|
|
1022,
|
|
10110100,
|
|
01101102,
|
|
0222,
|
|
10101110,
|
|
10110100,
|
|
01101102,
|
|
0222,
|
|
10000020,
|
|
11102000,
|
|
11102020,
|
|
11020000,
|
|
30030020,
|
|
0222,
|
|
700000000000000000000000000000000000000000000008,
|
|
|
|
|
|
#END
|
|
|
|
|
|
#START P2
|
|
|
|
|
|
,
|
|
1120,
|
|
10102220,
|
|
1120,
|
|
10102220,
|
|
1022,
|
|
10110100,
|
|
01101102,
|
|
0222,
|
|
10101110,
|
|
10110100,
|
|
01101102,
|
|
0222,
|
|
0202,
|
|
11102000,
|
|
11102020,
|
|
11020000,
|
|
30030050,
|
|
,
|
|
8,
|
|
43,
|
|
0101,
|
|
0101,
|
|
22022000,
|
|
22022000,
|
|
20222000,
|
|
20222000,
|
|
10101110,
|
|
10110100,
|
|
01101102,
|
|
0222,
|
|
1022,
|
|
10110100,
|
|
01101102,
|
|
0222,
|
|
11102020,
|
|
11102020,
|
|
0202,
|
|
11020000,
|
|
30030020,
|
|
0222,
|
|
700000000000000000000000000000000000000000000008,
|
|
|
|
|
|
#END
|
|
|
|
|
|
STYLE:Single
|
|
BALLOON:12
|
|
SCOREINIT:1100
|
|
SCOREDIFF:410
|
|
|
|
|
|
#START
|
|
|
|
|
|
,
|
|
1120,
|
|
10102220,
|
|
1120,
|
|
10102220,
|
|
10101110,
|
|
10110100,
|
|
01101102,
|
|
0222,
|
|
11102020,
|
|
11102000,
|
|
11102020,
|
|
11020000,
|
|
30040050,
|
|
,
|
|
8,
|
|
43,
|
|
22022000,
|
|
22022000,
|
|
10010000,
|
|
10010000,
|
|
20222000,
|
|
20222000,
|
|
10101110,
|
|
10110100,
|
|
01101102,
|
|
0222,
|
|
11102020,
|
|
11102000,
|
|
11102020,
|
|
11020000,
|
|
30030040,
|
|
0222,
|
|
700000000000000000000000000000000000000000000008,
|
|
|
|
|
|
#END
|
|
|
|
|
|
COURSE:Easy
|
|
LEVEL:4
|
|
|
|
STYLE:Double
|
|
BALLOON:10
|
|
SCOREINIT:2000
|
|
|
|
|
|
#START P1
|
|
|
|
|
|
,
|
|
1,
|
|
,
|
|
1,
|
|
,
|
|
11,
|
|
1110,
|
|
01101100,
|
|
0222,
|
|
11,
|
|
1110,
|
|
0110,
|
|
0222,
|
|
1220,
|
|
1220,
|
|
1220,
|
|
1220,
|
|
3005,
|
|
,
|
|
8,
|
|
11,
|
|
20022000,
|
|
20022000,
|
|
0202,
|
|
0202,
|
|
12,
|
|
12,
|
|
11,
|
|
11,
|
|
0110,
|
|
2222,
|
|
1110,
|
|
1110,
|
|
0110,
|
|
2222,
|
|
0202,
|
|
0202,
|
|
0202,
|
|
0202,
|
|
00030000,
|
|
0222,
|
|
700000000000000000000000000000000000000000000008,
|
|
|
|
#END
|
|
|
|
|
|
#START P2
|
|
|
|
|
|
,
|
|
1,
|
|
,
|
|
1,
|
|
,
|
|
11,
|
|
11,
|
|
01101100,
|
|
0222,
|
|
11,
|
|
11,
|
|
0110,
|
|
0222,
|
|
0202,
|
|
0202,
|
|
0202,
|
|
0202,
|
|
00030050,
|
|
,
|
|
8,
|
|
11,
|
|
0202,
|
|
0202,
|
|
10022000,
|
|
10022000,
|
|
12,
|
|
12,
|
|
1110,
|
|
1110,
|
|
0110,
|
|
2222,
|
|
11,
|
|
11,
|
|
0110,
|
|
2222,
|
|
1120,
|
|
1120,
|
|
10111000,
|
|
10111000,
|
|
3,
|
|
0222,
|
|
700000000000000000000000000000000000000000000008,
|
|
|
|
|
|
#END
|
|
|
|
|
|
STYLE:Single
|
|
BALLOON:10
|
|
SCOREINIT:1800
|
|
SCOREDIFF:600
|
|
|
|
|
|
#START
|
|
|
|
|
|
,
|
|
1,
|
|
,
|
|
1,
|
|
,
|
|
11,
|
|
1110,
|
|
01101100,
|
|
0222,
|
|
11,
|
|
1110,
|
|
0110,
|
|
0222,
|
|
12,
|
|
12,
|
|
1120,
|
|
1120,
|
|
3035,
|
|
,
|
|
8,
|
|
11,
|
|
20022000,
|
|
20022000,
|
|
10022000,
|
|
10022000,
|
|
12,
|
|
12,
|
|
1110,
|
|
1110,
|
|
0110,
|
|
2222,
|
|
1110,
|
|
1110,
|
|
0110,
|
|
2222,
|
|
1120,
|
|
1120,
|
|
10111000,
|
|
10111000,
|
|
33,
|
|
0222,
|
|
700000000000000000000000000000000000000000000008,
|
|
|
|
|
|
#END
|
|
|