Files
ESE/01 Pop/Thriller/Thriller.tja
T
2023-06-15 19:15:39 -05:00

268 lines
7.2 KiB
Plaintext

//TJADB Project
TITLE:Thriller
TITLEJA:スリラー
SUBTITLE:--Michael Jackson
BPM:118.5
WAVE:Thriller.ogg
OFFSET:-2.308
DEMOSTART:46.063
COURSE:Oni
LEVEL:8
STYLE:Double
BALLOON:14
SCOREINIT:960
SCOREDIFF:230
#START P1
37000080,
3000300030002022,
1011102010002022,
1011102010002022,
1011102010002022,
1011102010002022,
1011102010002022,
1012102210201022,
1110110210112020,
1012102210201022,
1110110210221020,
1012102210201022,
1110110210221020,
1012102210201022,
1012102110111202,
1011120210111202,
1012102110111202,
1012102112021110,
1012102110111202,
1101202112021011,
1010101011101110,
1112111210222020,
#GOGOSTART
600000000000000000000000000000000008000000000000,
3000300030222020,
1010121100202022,
1010121100222020,
600000000000000000000000000000000008000000000000,
3000300030222020,
1010101100102022,
2030222030222020,
3022101210221202,
#GOGOEND
1022101210221202,
1022101210221202,
1022101211212203,
#END
#START P2
37000080,
3000300030002022,
1011102010002022,
1011102010002022,
1011102010002022,
1011102010002022,
1011102010002022,
1110110210112020,
1012102210201022,
1110110210112020,
1012102210201022,
1110110210221020,
1012102210102022,
1110110210221020,
1012102111011202,
1101202112021011,
1012102112021110,
1012102110111202,
1012102111011202,
1011120210111202,
1010101011101110,
1112111210222020,
#GOGOSTART
600000000000000000000000000000000008000000000000,
3000300030222020,
1010121100202022,
1010121100222020,
600000000000000000000000000000000008000000000000,
3000300030222020,
1010101100102022,
2030222030222020,
3022101210221202,
#GOGOEND
1022101210221202,
1022101210221202,
1022101211212203,
#END
COURSE:Hard
LEVEL:6
BALLOON:12,13
SCOREINIT:1020
SCOREDIFF:280
#START
#GOGOSTART
300000700000000000000000000000000800000000000000,
300000000000300000000000300000000000000000000000,
#GOGOEND
100000200000100000100000100000000000200000000000,
100000200000100000100000100000000000200000000000,
100000200000100000100000100000000000200000000000,
100000200000100000100000100000000000200000000000,
100000200000100000100100100000000000200000000000,
100000000000100100000100100000100100100000200000,
100000200000100000100100100000000000200000000000,
100000000000100100000100100000100100100000200000,
100000200000100000100100100000000000200000000000,
100000000000100100000100100000100100100000200000,
100000200000100000100100100000000000200000000000,
100000000000100100000100100000100100100000200000,
100000000000100100000100100000100100100000000000,
100000200200200000200200200000000000200000000000,
100000000000100100000100100000100100100000000000,
100000200200200000200200200000000000200000000000,
100000000000100100000100100000100100100000000000,
100000200200200000200200200000000000200000000000,
100000000000200000000000100000100000100000700000,
000000000000000000000800000000000000000000000000,
#GOGOSTART
300000000300000000000000200000000000200000000000,
100000200200200000200200200000000000200000000000,
100000100000100000100100000000100000200000100100,
100000100000100000100100000000100000100000100000,
300000000300000000000000200000000000200000000000,
100000200200200000200200200000000000200000000000,
100000100000100000100100000000100000200000200000,
000000300000400000000000300000400000000000400000,
600000000000000000000000000800000000000000000000,
#GOGOEND
100000200000100000100000100000000000200000000000,
100000200000100000100000100000000000200000000000,
100000200000100000100000100000000000400000000300,
#END
COURSE:Normal
LEVEL:4
SCOREINIT:1680
SCOREDIFF:670
#START
#GOGOSTART
600000000000000000000000800000000000000000000000,
100000000000100000000000100000000000000000000000,
#GOGOEND
100000000000100000000000100000000000000000000000,
100000000000100000000000100000000000000000000000,
100000000000100000000000100000000000000000000000,
100000000000100000000000100000000000000000000000,
100000000000100000000000100000000000200000000000,
500000000000000000800000000000000000000000000000,
100000000000100000000000100000000000200000000000,
100000000000000000000000000000000000000000000000,
100000000000100000000000100000000000200000000000,
500000000000000000800000000000000000000000000000,
100000000000100000000000100000000000200000000000,
100000000000000000000000000000000000000000000000,
500000000000000000800000000000000000000000000000,
100000000000100000100000100000000000000000000000,
100000000000100000000000100000000000200000000000,
100000000000100000100000100000000000000000000000,
500000000000000000800000000000000000000000000000,
100000000000100000000000100000000000200000000000,
100000000000100000100000100000000000000000000000,
300000000000000000000000000000000000000000000000,
#GOGOSTART
600000000000000000800000000000000000000000000000,
100000000000100000000000100000000000200000000000,
100000000000100000100000100000000000000000000000,
100000000000100000100000100000000000200000000000,
600000000000000000800000000000000000000000000000,
100000000000100000000000100000000000200000000000,
100000000000100000100000100000000000200000000000,
000000300000300000000000300000300000000000000000,
600000000000000000000000800000000000000000000000,
#GOGOEND
100000100000100000000000100000000000200000000000,
100000100000100000000000100000000000200000000000,
100000100000100000000000100000000000000000000300,
#END
COURSE:Easy
LEVEL:3
BALLOON:10
SCOREINIT:1600
SCOREDIFF:990
#START
#GOGOSTART
600000000000000000000000800000000000000000000000,
300000000000000000000000300000000000000000000000,
#GOGOEND
100000000000000000000000100000000000000000000000,
100000000000100000000000100000000000000000000000,
100000000000000000000000100000000000000000000000,
100000000000100000000000100000000000000000000000,
100000000000000000000000100000000000000000000000,
500000000000800000000000000000000000000000000000,
100000000000100000000000100000000000000000000000,
100000000000000000000000000000000000000000000000,
100000000000000000000000100000000000000000000000,
500000000000800000000000000000000000000000000000,
100000000000100000000000100000000000000000000000,
100000000000000000000000000000000000000000000000,
500000000000800000000000000000000000000000000000,
100000000000100000000000100000000000000000000000,
700000000000000000000000000000000000000000800000,
000000000000000000000000000000000000000000000000,
500000000000800000000000000000000000000000000000,
100000000000100000000000100000000000000000000000,
100000000000000000000000100000000000000000000000,
300000000000000000000000000000000000000000000000,
#GOGOSTART
600000000000000000000000800000000000000000000000,
100000000000100000000000100000000000000000000000,
100000000000000000000000100000000000000000000000,
100000000000100000000000100000000000000000000000,
600000000000000000000000800000000000000000000000,
100000000000100000000000100000000000000000000000,
100000000000000000000000100000000000000000000000,
000000300000300000000000300000300000000000000000,
600000000000000000000000800000000000000000000000,
#GOGOEND
100000000000000000000000100000000000000000000000,
100000000000000000000000100000000000000000000000,
100000000000000000000000100000000000000000000300,
#END