Files
ESE/01 Pop/Toki no Ashioto/Toki no Ashioto.tja
T
2023-06-15 19:00:23 -05:00

120 lines
3.8 KiB
Plaintext

//TJADB Project
TITLE:Toki no Ashioto
TITLEJA:時の足音
SUBTITLE:--Kobukuro/Oh! My Girl‼
BPM:81.5
WAVE:Toki no Ashioto.ogg
OFFSET:-11.776
DEMOSTART:76.533
COURSE:Oni
LEVEL:5
STYLE:Double
BALLOON:30
SCOREINIT:1310
SCOREDIFF:330
#START P1
100000000000100000200000100000000000200000000000,
100000000000100000000000100000200000100000200000,
100000000000100000200000100000000000100000000000,
100000100000200000200000100000000000000000000000,
100000000000200000000000100000100000200000000000,
100000000000100000200000100000000000200000000000,
100000000000200000000000100000100000200000000000,
100000000000500000000000000000000008000000000000,
100000000000200000000000100000100000200000000000,
100000200000100200100000100000000000200000000000,
100100100000200000000000100100100000200000000000,
100000000000000000000000000000000000200000000000,
100000000000200000000000100100100000200000000000,
100100100000200000100000100100100000200000000000,
100000000000200000000000100000100000200000000000,
100000200000100000200000100100100000200000000000,
10201120,
1020112011201000,
1000121000000000,
1000121000002000,
500000000000000000000000000008000000000000000000,
300000000000000000000000000000000000000000000000,
#GOGOSTART
100000200000200000100000100200100000200000100000,
500000000000000000000008000000000000200000000000,
100000200000200000100000100200100000200000100000,
100000000000000000000000000000000000200000000000,
100200100000200000000000100200100000200000000000,
500000000000000000000008000000000000000000000000,
100000200000100200100000100000200000100200100000,
300000000000300000000000300000000000200000000000,
100000200200200000200000100000200100200000200000,
100000200200200000200000100000200000100000000000,
100200100000200000200000100200100000200000200000,
#GOGOEND
100000000000000000000000000000000000200000000000,
100100100000100000200000100000000000200000000000,
100100100000100000200000100000000000200000000000,
100200100000100000200000200200100000200000000000,
7,
08000000,
#END
#START P2
100000000000100000200000100000000000200000000000,
100000000000100000000000100000200000100000200000,
100000000000100000200000100000000000100000000000,
100000100000200000200000100000000000000000000000,
100000000000200000000000100000100000200000000000,
100000000000100000200000100000000000200000000000,
100000000000200000000000100000100000200000000000,
100000000000500000000000000000000008000000000000,
100000000000200000000000100000100000200000000000,
100000200000100200100000100000000000200000000000,
100100100000200000000000100100100000200000000000,
100000000000000000000000000000000000200000000000,
100000000000200000000000100100100000200000000000,
100100100000200000100000100100100000200000000000,
100000000000200000000000100000100000200000000000,
100000200000100000200000100100100000200000000000,
10201120,
1020112011201000,
0000000010001210,
1000121000002000,
500000000000000000000000000008000000000000000000,
300000000000000000000000000000000000000000000000,
#GOGOSTART
100000200000200000100000100200100000200000100000,
500000000000000000000008000000000000200000000000,
100000200000200000100000100200100000200000100000,
100000000000000000000000000000000000200000000000,
100200100000200000000000100200100000200000000000,
500000000000000000000008000000000000000000000000,
100000200000100200100000100000200000100200100000,
300000000000300000000000300000000000200000000000,
100000200200200000200000100000200100200000200000,
100000200200200000200000100000200000100000000000,
100200100000200000200000100200100000200000200000,
#GOGOEND
100000000000000000000000000000000000200000000000,
100100100000100000200000100000000000200000000000,
100100100000100000200000100000000000200000000000,
100200100000100000200000200200100000200000000000,
7,
08000000,
#END