Files
ESE/01 Pop/Tomo yo ~Kono Saki mo Zutto/Tomo yo ~Kono Saki mo Zutto....tja
T
2023-06-15 19:05:10 -05:00

306 lines
3.3 KiB
Plaintext
Raw Blame History

This file contains ambiguous Unicode characters
This file contains Unicode characters that might be confused with other characters. If you think that this is intentional, you can safely ignore this warning. Use the Escape button to reveal them.
//TJADB Project
TITLE:Tomo yo ~Kono Saki mo Zutto...
TITLEJA:友よ ~この先もずっと…
SUBTITLE:--Ketsumeishi/Crayon Shin-chan
BPM:127
WAVE:Tomo yo ~Kono Saki mo Zutto....ogg
OFFSET:-7.661
DEMOSTART:32.227
COURSE:Oni
LEVEL:5
BALLOON:23
SCOREINIT:960
SCOREDIFF:230
#START
22220000,
,
22220000,
22220000,
2,
10101110,
10101210,
10101110,
500000000000000000000008000000000000000000000000,
10101110,
10101210,
10110110,
3334,
11102220,
11102120,
11102220,
11102120,
12101212,
02021201,
12101110,
11201200,
1010201010020000,
1010201010020000,
11211210,
1010201010020010,
10210211,
10210101,
10101220,
11211200,
10112022,
12201012,
10221220,
12111022,
12201121,
10121101,
12112112,
500000000000000000000000000000000008000000000000,//41
#GOGOSTART
1000101110201000,
12010121,
0010101110002010,
12120000,
1000101110201020,
10220022,
12500000,
000000000008000000000000000000000000000000000000,
1000101110201020,
11210121,
0010201110102010,
01220001,
1000201110002011,
1000201110002011,
12500000,
000000000008000000100000100000200000000000100000,
7,
80000434,//59
#GOGOEND
#END
COURSE:Hard
LEVEL:4
BALLOON:18
SCOREINIT:860
SCOREDIFF:220
#START
#BARLINEOFF
,
,
,
,
#BARLINEON
20220000,
,
20220000,
20220000,
2,
10101110,
20202220,
10101110,
500000000000000000000008000000000000000000000000,
10101110,
20202220,
10110110,
3333,
11102020,
11102220,
11102020,
11102220,
12101212,
02022200,
12101110,
22201200,
1010200010020000,
1010200010020000,
11211020,
1010201010020000,
10110110,
10110200,
10102220,
10111200,
10111020,
22201011,
10202220,
12111022,
11201121,
10201100,
11201120,
500000000000000000000000000000000008000000000000,//41
#GOGOSTART
10101120,
11020112,
01101120,
12120000,
10101121,
10110022,
02500000,
000000000008000000000000000000000000000000000000,
10101120,
11020112,
01101120,
12120001,
10211021,
10211021,
12500000,
000000000008000000000000000000000000000000000000,
7,
80000434,//59
#GOGOEND
,
,
#END
COURSE:Normal
LEVEL:4
BALLOON:14,14,12
#START
#BARLINEOFF
,
,
,
,
#BARLINEON
20020000,
,
20020000,
20020000,
2,
1110,
1110,
1111,
500000000000000000000008000000000000000000000000,
1110,
1120,
1112,
500000000000000000000000000000000008000000000000,
1011,
1022,
1011,
1022,
1011,
1130,
1011,
1140,
1120,
1120,
1111,
1140,
1212,
1140,
1212,
11104000,
10101011,
10101011,
1111,
22202000,
10101011,
1110,
1212,
500000000000000000000000000000000008000000000000,//41
#GOGOSTART
10101110,
11010111,
01101010,
20220000,
10101110,
20220090,
0009,
8,
10101110,
11010111,
01101010,
20220001,
1212,
10222090,
0009,
8,
7,
80000333,//59
#GOGOEND
,
,
#END
COURSE:Easy
LEVEL:2
BALLOON:10,10,10
#START
#BARLINEOFF
,
,
,
,
#BARLINEON
2,
,
2,
2,
2,
1,
1,
11,
500000000000000000000008000000000000000000000000,
1,
1,
11,
500000000000000000000000000008000000000000000000,
1,
1,
2,
2,
11,
1110,
11,
1110,
1,
1,
22,
2,
11,
1110,
11,
500000000000000000000000000008000000000000000000,
11,
2,
11,
2220,
11,
1110,
1111,
500000000000000000000000000008000000000000000000,//41
#GOGOSTART
1011,
1,
3333,
3,
1011,
1009,
0009,
8,
1011,
1,
3333,
3,
33,
3339,
0009,
8,
7,
80000300,//59
#GOGOEND
,
,
#END