604 lines
16 KiB
Plaintext
604 lines
16 KiB
Plaintext
//TJADB Project
|
|
TITLE:Toukumade
|
|
TITLEJA:遠くまで
|
|
SUBTITLE:--Do As Infinity/Vampire Hunter D
|
|
SUBTITLEJA:Do As Infinity
|
|
BPM:135.11
|
|
WAVE:Toukumade.ogg
|
|
OFFSET:-5.110
|
|
DEMOSTART:66.989
|
|
|
|
COURSE:Oni
|
|
LEVEL:6
|
|
BALLOON:24,15,16,15
|
|
SCOREINIT:930
|
|
SCOREDIFF:200
|
|
|
|
|
|
#START
|
|
|
|
|
|
#SCROLL 1.04
|
|
000000000000000000100000200000200000000000200000,
|
|
#BPMCHANGE 140.86
|
|
#SCROLL 1
|
|
000000000000000000100000200000200000000000200000,
|
|
#BPMCHANGE 141.11
|
|
#SCROLL 0.99
|
|
000000000000000000000000100000000000200000000000,
|
|
#BPMCHANGE 140.15
|
|
#SCROLL 1
|
|
200000000000000000200000000000000000000000100000,
|
|
#BPMCHANGE 140.39
|
|
100000000000000000100000200000200000000000200000,
|
|
#BPMCHANGE 139.79
|
|
000000000000000000100000200000200000000000200000,
|
|
#BPMCHANGE 142.5
|
|
#SCROLL 0.98
|
|
000000000000000000100000200000000000200000700000,
|
|
#BPMCHANGE 148.38
|
|
#SCROLL 0.95
|
|
000000000000000000000000000000000000000000000000,
|
|
#BPMCHANGE 135.06
|
|
#SCROLL 1.04
|
|
000000000000800000000000000000300000400000000000,
|
|
#BPMCHANGE 141.77
|
|
#SCROLL 0.99
|
|
100000000000200000100100100000100000200000100000,
|
|
#BPMCHANGE 141.51
|
|
000000100000200000100000000000100100200000200000,
|
|
#BPMCHANGE 141.36
|
|
100000000000200000100100100000100000200000100000,
|
|
#BPMCHANGE 140.95
|
|
#SCROLL 1
|
|
000000100000200000100000000000100100200000200000,
|
|
#BPMCHANGE 140.51
|
|
100000100000200200200200000000000200200000100000,
|
|
#BPMCHANGE 141.32
|
|
#SCROLL 0.99
|
|
000000100000200000100000000000100100200000200000,
|
|
#BPMCHANGE 140.39
|
|
#SCROLL 1
|
|
100000100000200200200200000000000200200000100000,
|
|
#BPMCHANGE 141.48
|
|
#SCROLL 0.99
|
|
000000100000200000100000000000100100200000200000,
|
|
#BPMCHANGE 141
|
|
#SCROLL 1
|
|
100000000000200000100000100000200000200000100000,
|
|
000000100000200000000000100000000000200000000000,
|
|
100000100000200000100000000000100000200000100000,
|
|
#BPMCHANGE 141.83
|
|
#SCROLL 0.99
|
|
300000000000400000000000300000000000400000000000,
|
|
#BPMCHANGE 140.68
|
|
#SCROLL 1
|
|
400000600000000000000000000000000000000008000000,
|
|
#BPMCHANGE 141.71
|
|
#SCROLL 0.99
|
|
000000200000200000100000200000000000200000200000,
|
|
#BPMCHANGE 141.23
|
|
100000100000200000000200100000100100200000300000,
|
|
#BPMCHANGE 140.28
|
|
#SCROLL 1
|
|
000000400000400000300000400000000000400000400000,
|
|
300000000000200000100000100000200000200000100000,
|
|
#BPMCHANGE 141
|
|
000000100000200000000000100000000000200000000000,
|
|
#BPMCHANGE 140.94
|
|
100000100000200000100000000000100000200000100000,
|
|
#BPMCHANGE 140.62
|
|
300000000000400000000000300000000000400000400000,
|
|
#BPMCHANGE 142.2
|
|
#SCROLL 0.99
|
|
000000600000000000000000000000000000000008000000,
|
|
#BPMCHANGE 140.26
|
|
#SCROLL 1
|
|
000000200000200000100000200000000000200000200000,
|
|
#BPMCHANGE 141.36
|
|
#SCROLL 0.99
|
|
100000100000200000000200100000100100200000300000,
|
|
#BPMCHANGE 141.47
|
|
000000400000400000300000400000000000400000600000,
|
|
000000000000000000000000000000000000000008000000,
|
|
#BPMCHANGE 140.39
|
|
#SCROLL 1
|
|
000000200000200000100000200000000000200000200000,
|
|
#BPMCHANGE 140.74
|
|
700000000000000000000000000000000000000000000000,
|
|
#BPMCHANGE 141.59
|
|
#SCROLL 0.99
|
|
800000000000000000100000200000200000000000200000,
|
|
|
|
#GOGOSTART
|
|
#BPMCHANGE 140.92
|
|
#SCROLL 1
|
|
100000100000200200100000200000200000000000200000,
|
|
#BPMCHANGE 140.21
|
|
100000100000200200100000200000000000200000000000,
|
|
#BPMCHANGE 141.47
|
|
#SCROLL 0.99
|
|
100000100000200200100000000000100000200000100000,
|
|
#BPMCHANGE 142.2
|
|
100000000000000000100000200000200000000000200000,
|
|
#BPMCHANGE 140.62
|
|
#SCROLL 1
|
|
100000100000200200100000200000200000000000200000,
|
|
#BPMCHANGE 140.92
|
|
100000100000200200100000200000000000200000700000,
|
|
#BPMCHANGE 140.45
|
|
000000000000000000000000000000000000000000000000,
|
|
#BPMCHANGE 141.77
|
|
#SCROLL 0.99
|
|
800000000000000000000000200000200000000000200000,
|
|
#BPMCHANGE 140.62
|
|
#SCROLL 1
|
|
100000100000200200100000200000200000000000200000,
|
|
#BPMCHANGE 140.68
|
|
100000100000200200100000200000000000200000000000,
|
|
#BPMCHANGE 140.74
|
|
100100100000200200100000000000100000200000100000,
|
|
#BPMCHANGE 140.98
|
|
100000000000000000100000200200200000000000200000,
|
|
#BPMCHANGE 141.35
|
|
#SCROLL 0.99
|
|
100100100000200200100000200200200000000000200000,
|
|
#BPMCHANGE 141.74
|
|
100100100000200200100000200000000000200000700000,
|
|
#BPMCHANGE 140.6
|
|
#SCROLL 1
|
|
000000000000000000000000000000000000800000000000,
|
|
#BPMCHANGE 140.21
|
|
400000300000400000000100200200200000200200200000,
|
|
|
|
#GOGOEND
|
|
#BPMCHANGE 141
|
|
300000000000000000000000000000000000000000000000,
|
|
|
|
|
|
#END
|
|
|
|
|
|
COURSE:Hard
|
|
LEVEL:4
|
|
BALLOON:20,14,20,12
|
|
|
|
|
|
#START
|
|
|
|
|
|
#SCROLL 1.04
|
|
000000000000000000200000200000200000000000200000,
|
|
#BPMCHANGE 140.86
|
|
#SCROLL 1
|
|
000000000000000000200000200000200000000000200000,
|
|
#BPMCHANGE 141.11
|
|
#SCROLL 0.99
|
|
000000000000000000000000100000000000100000000000,
|
|
#BPMCHANGE 140.15
|
|
#SCROLL 1
|
|
200000000000000000200000000000000000000000100000,
|
|
#BPMCHANGE 140.39
|
|
100000000000000000200000200000200000000000200000,
|
|
#BPMCHANGE 139.79
|
|
000000000000000000200000200000200000000000200000,
|
|
#BPMCHANGE 142.5
|
|
#SCROLL 0.98
|
|
000000000000000000100000100000000000100000700000,
|
|
#BPMCHANGE 148.38
|
|
#SCROLL 0.95
|
|
000000000000000000000000000000000000000000000000,
|
|
#BPMCHANGE 135.06
|
|
#SCROLL 1.04
|
|
000000000008000000000000000000300000400000000000,
|
|
#BPMCHANGE 141.77
|
|
#SCROLL 0.99
|
|
100000000000200000100000000000100000200000100000,
|
|
#BPMCHANGE 141.51
|
|
000000100000000000100000000000100000200000000000,
|
|
#BPMCHANGE 141.36
|
|
100000000000200000100000000000100000200000100000,
|
|
#BPMCHANGE 140.95
|
|
#SCROLL 1
|
|
000000100000000000100000000000100000200000000000,
|
|
#BPMCHANGE 140.51
|
|
100000100000200000000000100000200000000000300000,
|
|
#BPMCHANGE 141.32
|
|
#SCROLL 0.99
|
|
000000100000200000100000000000100000200000000000,
|
|
#BPMCHANGE 140.39
|
|
#SCROLL 1
|
|
100000100000200000000000100000200000000000300000,
|
|
#BPMCHANGE 141.48
|
|
#SCROLL 0.99
|
|
000000100000200000100000000000100000200000000000,
|
|
#BPMCHANGE 141
|
|
#SCROLL 1
|
|
100000000000200000000000200000200000200000200000,
|
|
000000100000100000000000200000000000200000000000,
|
|
100000100000000000100000000000100000000000100000,
|
|
#BPMCHANGE 141.83
|
|
#SCROLL 0.99
|
|
400000000000400000000000400000000000400000000000,
|
|
#BPMCHANGE 140.68
|
|
#SCROLL 1
|
|
400000600000000000000000000000000000000080000000,
|
|
#BPMCHANGE 141.71
|
|
#SCROLL 0.99
|
|
000000200000200000100000100000000000200000200000,
|
|
#BPMCHANGE 141.23
|
|
100000100000200000000000100000200000000000300000,
|
|
#BPMCHANGE 140.28
|
|
#SCROLL 1
|
|
000000200000200000100000100000000000400000400000,
|
|
300000000000200000000000200000200000200000200000,
|
|
#BPMCHANGE 141
|
|
000000100000100000000000200000000000200000000000,
|
|
#BPMCHANGE 140.94
|
|
100000100000000000100000000000100000000000100000,
|
|
#BPMCHANGE 140.62
|
|
400000000000400000000000400000000000400000400000,
|
|
#BPMCHANGE 142.2
|
|
#SCROLL 0.99
|
|
000000600000000000000000000000000000000080000000,
|
|
#BPMCHANGE 140.26
|
|
#SCROLL 1
|
|
000000200000200000100000100000000000200000200000,
|
|
#BPMCHANGE 141.36
|
|
#SCROLL 0.99
|
|
100000100000200000000000100000200000000000300000,
|
|
#BPMCHANGE 141.47
|
|
000000200000200000100000100000000000400000600000,
|
|
000000000000000000000000000000000000000080000000,
|
|
#BPMCHANGE 140.39
|
|
#SCROLL 1
|
|
000000200000200000100000100000000000200000200000,
|
|
#BPMCHANGE 140.74
|
|
700000000000000000000000000000000000000000000008,
|
|
#BPMCHANGE 141.59
|
|
#SCROLL 0.99
|
|
000000000000000000100000200000200000000000200000,
|
|
|
|
#GOGOSTART
|
|
#BPMCHANGE 140.92
|
|
#SCROLL 1
|
|
100000000000200000100000200000200000000000200000,
|
|
#BPMCHANGE 140.21
|
|
100000000000200000100000100100100000200000000000,
|
|
#BPMCHANGE 141.47
|
|
#SCROLL 0.99
|
|
100000000000200000100000000000100000200000100000,
|
|
#BPMCHANGE 142.2
|
|
100000000000000000100000200000200000000000200000,
|
|
#BPMCHANGE 140.62
|
|
#SCROLL 1
|
|
100000000000200000100000200000200000000000200000,
|
|
#BPMCHANGE 140.92
|
|
100000000000200000100000100000000000100000700000,
|
|
#BPMCHANGE 140.45
|
|
000000000000000000000000000000000000000000000000,
|
|
#BPMCHANGE 141.77
|
|
#SCROLL 0.99
|
|
000000000008000000000000200000200000000000200000,
|
|
#BPMCHANGE 140.62
|
|
#SCROLL 1
|
|
100000000000200000100000200000200000000000200000,
|
|
#BPMCHANGE 140.68
|
|
100000000000200000100000100100100000200000000000,
|
|
#BPMCHANGE 140.74
|
|
100000000000200000100000000000100000200000100000,
|
|
#BPMCHANGE 140.98
|
|
100000000000000000100000200200200000000000200000,
|
|
#BPMCHANGE 141.35
|
|
#SCROLL 0.99
|
|
100000000000200000100000200200200000000000200000,
|
|
#BPMCHANGE 141.74
|
|
100000000000200000100000100000000000100000700000,
|
|
#BPMCHANGE 140.6
|
|
#SCROLL 1
|
|
000000000000000000000000000000000008000000000000,
|
|
#BPMCHANGE 140.21
|
|
400000000000400000000000200200200000200200200000,
|
|
|
|
#GOGOEND
|
|
#BPMCHANGE 141
|
|
300000000000000000000000000000000000000000000000,
|
|
|
|
|
|
#END
|
|
|
|
|
|
COURSE:Normal
|
|
LEVEL:4
|
|
BALLOON:12,10,10,18
|
|
|
|
|
|
#START
|
|
|
|
|
|
#SCROLL 1.04
|
|
000000000000000000000000200000000000200000000000,
|
|
#BPMCHANGE 140.86
|
|
#SCROLL 1
|
|
200000000000000000000000200000000000200000000000,
|
|
#BPMCHANGE 141.11
|
|
#SCROLL 0.99
|
|
200000000000000000000000200000000000200000000000,
|
|
#BPMCHANGE 140.15
|
|
#SCROLL 1
|
|
200000000000000000000000200000000000000000000000,
|
|
#BPMCHANGE 140.39
|
|
200000000000000000000000200000000000200000000000,
|
|
#BPMCHANGE 139.79
|
|
200000000000000000000000200000000000200000000000,
|
|
#BPMCHANGE 142.5
|
|
#SCROLL 0.98
|
|
200000000000000000000000200000000000200000000000,
|
|
#BPMCHANGE 148.38
|
|
#SCROLL 0.95
|
|
700000000000000000000000000000000000000000000000,
|
|
#BPMCHANGE 135.06
|
|
#SCROLL 1.04
|
|
000000000000000000000008000000000000000000000000,
|
|
#BPMCHANGE 141.77
|
|
#SCROLL 0.99
|
|
100000000000100000000000100000100000100000000000,
|
|
#BPMCHANGE 141.51
|
|
100000000000100000000000100000100000100000000000,
|
|
#BPMCHANGE 141.36
|
|
100000000000100000000000100000100000100000000000,
|
|
#BPMCHANGE 140.95
|
|
#SCROLL 1
|
|
100000000000100000000000100000100000100000000000,
|
|
#BPMCHANGE 140.51
|
|
400000000000400000000000400000000000000000400000,
|
|
#BPMCHANGE 141.32
|
|
#SCROLL 0.99
|
|
000000000000000000000000000000000000000000000000,
|
|
#BPMCHANGE 140.39
|
|
#SCROLL 1
|
|
400000000000400000000000400000000000000000400000,
|
|
#BPMCHANGE 141.48
|
|
#SCROLL 0.99
|
|
000000000000000000000000000000000000000000000000,
|
|
#BPMCHANGE 141
|
|
#SCROLL 1
|
|
100000000000100000000000100000100000100000000000,
|
|
200000000000200000000000000000000000200000000000,
|
|
100000000000100000000000100000100000100000000000,
|
|
#BPMCHANGE 141.83
|
|
#SCROLL 0.99
|
|
400000000000400000000000400000000000400000000000,
|
|
#BPMCHANGE 140.68
|
|
#SCROLL 1
|
|
600000000000000000000000000000000000000080000000,
|
|
#BPMCHANGE 141.71
|
|
#SCROLL 0.99
|
|
000000000000200000000000200000200000200000000000,
|
|
#BPMCHANGE 141.23
|
|
300000000000300000000000300000000000000000300000,
|
|
#BPMCHANGE 140.28
|
|
#SCROLL 1
|
|
000000000000200000000000200000200000200000000000,
|
|
100000000000100000000000100000100000100000000000,
|
|
#BPMCHANGE 141
|
|
200000000000200000000000000000000000200000000000,
|
|
#BPMCHANGE 140.94
|
|
100000000000100000000000100000100000100000000000,
|
|
#BPMCHANGE 140.62
|
|
400000000000400000000000400000000000400000000000,
|
|
#BPMCHANGE 142.2
|
|
#SCROLL 0.99
|
|
600000000000000000000000000000000000000080000000,
|
|
#BPMCHANGE 140.26
|
|
#SCROLL 1
|
|
000000000000200000000000200000200000200000000000,
|
|
#BPMCHANGE 141.36
|
|
#SCROLL 0.99
|
|
300000000000300000000000300000000000000000300000,
|
|
#BPMCHANGE 141.47
|
|
000000000000200000000000200000200000200000000000,
|
|
600000000000000000000000000000000000000080000000,
|
|
#BPMCHANGE 140.39
|
|
#SCROLL 1
|
|
000000000000200000000000200000200000200000000000,
|
|
#BPMCHANGE 140.74
|
|
700000000000000000000000000000000000000000000008,
|
|
#BPMCHANGE 141.59
|
|
#SCROLL 0.99
|
|
000000000000000000000000200000200000200000000000,
|
|
|
|
#GOGOSTART
|
|
#BPMCHANGE 140.92
|
|
#SCROLL 1
|
|
100000000000100000000000200000200000200000000000,
|
|
#BPMCHANGE 140.21
|
|
100000000000100000000000200000000000200000000000,
|
|
#BPMCHANGE 141.47
|
|
#SCROLL 0.99
|
|
100000100000100000000000200000200000200000000000,
|
|
#BPMCHANGE 142.2
|
|
100000000000000000000000200000200000200000000000,
|
|
#BPMCHANGE 140.62
|
|
#SCROLL 1
|
|
100000000000100000000000200000200000200000000000,
|
|
#BPMCHANGE 140.92
|
|
100000000000100000000000200000000000200000000000,
|
|
#BPMCHANGE 140.45
|
|
700000000000000000000000000000000000000000000008,
|
|
#BPMCHANGE 141.77
|
|
#SCROLL 0.99
|
|
000000000000000000000000200000200000200000000000,
|
|
#BPMCHANGE 140.62
|
|
#SCROLL 1
|
|
100000000000100000000000200000200000200000000000,
|
|
#BPMCHANGE 140.68
|
|
100000000000100000000000200000000000200000000000,
|
|
#BPMCHANGE 140.74
|
|
100000100000100000000000200000200000200000000000,
|
|
#BPMCHANGE 140.98
|
|
100000000000000000000000200000200000200000000000,
|
|
#BPMCHANGE 141.35
|
|
#SCROLL 0.99
|
|
100000000000100000000000200000200000200000000000,
|
|
#BPMCHANGE 141.74
|
|
100000000000100000000000200000000000200000000000,
|
|
#BPMCHANGE 140.6
|
|
#SCROLL 1
|
|
700000000000000000000000000000000000000000000000,
|
|
#BPMCHANGE 140.21
|
|
000000000000000000000000000000000000000000000008,
|
|
|
|
#GOGOEND
|
|
|
|
|
|
#END
|
|
|
|
|
|
COURSE:Easy
|
|
LEVEL:3
|
|
BALLOON:12,8,6,15
|
|
|
|
|
|
#START
|
|
|
|
|
|
#SCROLL 1.04
|
|
000000000000000000000000000000000000000000000000,
|
|
#BPMCHANGE 140.86
|
|
#SCROLL 1
|
|
200000000000000000000000000000000000000000000000,
|
|
#BPMCHANGE 141.11
|
|
#SCROLL 0.99
|
|
200000000000000000000000000000000000000000000000,
|
|
#BPMCHANGE 140.15
|
|
#SCROLL 1
|
|
200000000000000000000000200000000000000000000000,
|
|
#BPMCHANGE 140.39
|
|
200000000000000000000000000000000000000000000000,
|
|
#BPMCHANGE 139.79
|
|
200000000000000000000000000000000000000000000000,
|
|
#BPMCHANGE 142.5
|
|
#SCROLL 0.98
|
|
200000000000000000000000000000000000000000000000,
|
|
#BPMCHANGE 148.38
|
|
#SCROLL 0.95
|
|
700000000000000000000000000000000000000000000000,
|
|
#BPMCHANGE 135.06
|
|
#SCROLL 1.04
|
|
000000000000000000000008000000000000000000000000,
|
|
#BPMCHANGE 141.77
|
|
#SCROLL 0.99
|
|
100000000000000000000000100000000000000000000000,
|
|
#BPMCHANGE 141.51
|
|
100000000000100000000000100000000000000000000000,
|
|
#BPMCHANGE 141.36
|
|
100000000000000000000000100000000000000000000000,
|
|
#BPMCHANGE 140.95
|
|
#SCROLL 1
|
|
100000000000100000000000100000000000000000000000,
|
|
#BPMCHANGE 140.51
|
|
300000000000300000000000300000000000000000300000,
|
|
#BPMCHANGE 141.32
|
|
#SCROLL 0.99
|
|
000000000000000000000000000000000000000000000000,
|
|
#BPMCHANGE 140.39
|
|
#SCROLL 1
|
|
300000000000300000000000300000000000000000300000,
|
|
#BPMCHANGE 141.48
|
|
#SCROLL 0.99
|
|
000000000000000000000000000000000000000000000000,
|
|
#BPMCHANGE 141
|
|
#SCROLL 1
|
|
100000000000000000000000100000000000000000000000,
|
|
200000000000000000000000200000000000000000000000,
|
|
100000000000100000000000100000000000000000000000,
|
|
#BPMCHANGE 141.83
|
|
#SCROLL 0.99
|
|
400000000000400000000000400000000000400000000000,
|
|
#BPMCHANGE 140.68
|
|
#SCROLL 1
|
|
600000000000000000000000000000000000000080000000,
|
|
#BPMCHANGE 141.71
|
|
#SCROLL 0.99
|
|
000000000000200000000000200000000000000000000000,
|
|
#BPMCHANGE 141.23
|
|
300000000000300000000000300000000000000000300000,
|
|
#BPMCHANGE 140.28
|
|
#SCROLL 1
|
|
000000000000200000000000200000000000000000000000,
|
|
100000000000000000000000100000000000000000000000,
|
|
#BPMCHANGE 141
|
|
200000000000000000000000200000000000000000000000,
|
|
#BPMCHANGE 140.94
|
|
100000000000100000000000100000000000000000000000,
|
|
#BPMCHANGE 140.62
|
|
400000000000400000000000400000000000400000000000,
|
|
#BPMCHANGE 142.2
|
|
#SCROLL 0.99
|
|
600000000000000000000000000000000000000080000000,
|
|
#BPMCHANGE 140.26
|
|
#SCROLL 1
|
|
000000000000200000000000200000000000000000000000,
|
|
#BPMCHANGE 141.36
|
|
#SCROLL 0.99
|
|
300000000000300000000000300000000000000000300000,
|
|
#BPMCHANGE 141.47
|
|
000000000000200000000000200000000000000000000000,
|
|
600000000000000000000000000000000000000080000000,
|
|
#BPMCHANGE 140.39
|
|
#SCROLL 1
|
|
000000000000200000000000200000000000000000000000,
|
|
#BPMCHANGE 140.74
|
|
700000000000000000000000000000000000000000000008,
|
|
#BPMCHANGE 141.59
|
|
#SCROLL 0.99
|
|
000000000000000000000000100000000000100000000000,
|
|
|
|
#GOGOSTART
|
|
#BPMCHANGE 140.92
|
|
#SCROLL 1
|
|
100000000000000000000000100000000000100000000000,
|
|
#BPMCHANGE 140.21
|
|
100000000000000000000000200000000000200000000000,
|
|
#BPMCHANGE 141.47
|
|
#SCROLL 0.99
|
|
200000000000000000000000200000000000000000000000,
|
|
#BPMCHANGE 142.2
|
|
200000000000000000000000100000000000100000000000,
|
|
#BPMCHANGE 140.62
|
|
#SCROLL 1
|
|
100000000000000000000000100000000000100000000000,
|
|
#BPMCHANGE 140.92
|
|
100000000000000000000000200000000000200000000000,
|
|
#BPMCHANGE 140.45
|
|
700000000000000000000000000000000000000000000008,
|
|
#BPMCHANGE 141.77
|
|
#SCROLL 0.99
|
|
000000000000000000000000100000000000100000000000,
|
|
#BPMCHANGE 140.62
|
|
#SCROLL 1
|
|
100000000000000000000000100000000000100000000000,
|
|
#BPMCHANGE 140.68
|
|
100000000000000000000000200000000000200000000000,
|
|
#BPMCHANGE 140.74
|
|
200000000000000000000000200000000000000000000000,
|
|
#BPMCHANGE 140.98
|
|
200000000000000000000000100000000000100000000000,
|
|
#BPMCHANGE 141.35
|
|
#SCROLL 0.99
|
|
100000000000000000000000100000000000100000000000,
|
|
#BPMCHANGE 141.74
|
|
100000000000000000000000200000000000200000000000,
|
|
#BPMCHANGE 140.6
|
|
#SCROLL 1
|
|
700000000000000000000000000000000000000000000000,
|
|
#BPMCHANGE 140.21
|
|
000000000000000000000000000000000000000000000008,
|
|
|
|
#GOGOEND
|
|
|
|
|
|
#END
|
|
|