269 lines
9.9 KiB
Plaintext
269 lines
9.9 KiB
Plaintext
//TJADB Project
|
|
TITLE:Tsubasa
|
|
TITLEJA:ツバサ
|
|
SUBTITLE:--Under Graph
|
|
BPM:104.63
|
|
WAVE:Tsubasa.ogg
|
|
OFFSET:-4.866
|
|
DEMOSTART:88.868
|
|
|
|
COURSE:Oni
|
|
LEVEL:7
|
|
SCOREINIT:790
|
|
SCOREDIFF:140
|
|
|
|
|
|
#START
|
|
|
|
|
|
000000000000000000000000000000000000000000000000,
|
|
#BPMCHANGE 105.37
|
|
000000000000000000000000000000000000000000000000,
|
|
#BPMCHANGE 105
|
|
100000100100200000100000200000100100200000100000,
|
|
100000100100200000100000200000100100200000100000,
|
|
100000100100200000100000200000100100200000100000,
|
|
100000100100200000100000200000100100200000100100,
|
|
200000100000200000100100200000100000100000100100,
|
|
200000100000200000100100200000100000100000100100,
|
|
200000100000200000100100200000100000100000100100,
|
|
200000100000200000100100200000100000100000000000,
|
|
200200200000000000000000200200200000100000200000,
|
|
100100200200100000200000100100200200100000200000,
|
|
100100200200100000200200100000200000100100100000,
|
|
100100200200100000200000100100200200100000200000,
|
|
100100200200100000200200100000200000100100100000,
|
|
100100200200100000200000100100200200100000200000,
|
|
100100200200100000200200100000200000100100200000,
|
|
100100200200100000200000100100200200100000200000,
|
|
100100200200100000200200100000200000100100200000,
|
|
500000000000000000000000000000000008000000000000,
|
|
000000000000000000000000000000000000100100200200,
|
|
100000200000100100200200100000200000100100200200,
|
|
100000200200100200200100100000200000100100200200,
|
|
100000200000100100200200100000200000100100200200,
|
|
100000200200100200200100100000200000100100200200,
|
|
100000200000100100200200100000200000100100200200,
|
|
100000200200100200200100100000200000100100200200,
|
|
100000200000100100200200100000200000100000100000,
|
|
100000000000300000300000300000000000100000100100,
|
|
100000100100100000100100100000100100100000100100,
|
|
100000200200100000200200100000000000100000100100,
|
|
100000100100100000100100100000100100100000100100,
|
|
100000200200100000200200100000000000100000100100,
|
|
100000100100100000100100100000100100100000100100,
|
|
100000200200100000200200100000000000100000100100,
|
|
100000100000000000100000100100100000100100100000,
|
|
100000100000100100100000100000000000100000100000,
|
|
|
|
#GOGOSTART
|
|
300000000100200000200000300000000100200000200000,
|
|
300000000100200200100000300000000100100200200000,
|
|
300000000100200000200000300000000100200000200000,
|
|
100100100100100100100000300000200200100000200000,
|
|
300000200100200000200000300000200100200100100000,
|
|
300000100000200100200000300000100100200100200000,
|
|
300000100200100200200000300000000100200000200000,
|
|
100100100100200200200200100100100100200200200000,
|
|
500000000000000000000000000000000000000000000008,
|
|
|
|
#GOGOEND
|
|
|
|
|
|
#END
|
|
|
|
|
|
COURSE:Hard
|
|
LEVEL:3
|
|
SCOREINIT:680
|
|
SCOREDIFF:170
|
|
|
|
|
|
#START
|
|
|
|
|
|
|
|
000000000000000000000000000000000000000000000000,
|
|
#BPMCHANGE 105.37
|
|
000000000000000000000000000000000000000000000000,
|
|
#BPMCHANGE 105
|
|
100000200000100000000000100000200000100000000000,
|
|
100000000000100000000000100000200000100000000000,
|
|
100000200000100000000000100000200000100000000000,
|
|
100000000000100000000000100000200000100000000000,
|
|
100000200000100000200000100000000000100000000000,
|
|
100000000000100000200000100000000000100000000000,
|
|
100000200000100000200000100000000000100000000000,
|
|
100000200000100000200000100000200000100000000000,
|
|
100100100000000000000000100100100000000000000000,
|
|
100100100000100000000000100100100000100000000000,
|
|
100100100000100000100000100000000000200000000000,
|
|
100100100000100000000000100100100000100000000000,
|
|
100100100000100000100000100000000000000000000000,
|
|
100100100000100000000000100100100000100000000000,
|
|
100100100000100000100000100000000000200000000000,
|
|
100100100000100000000000100100100000100000000000,
|
|
100100100000100000100000100000000000200000000000,
|
|
500000000000000000000000000000000800000000000000,
|
|
000000000000000000000000000000000000100100100000,
|
|
100000000000100100100000100000000000100100100000,
|
|
100000000000200000200000200000000000100100100000,
|
|
100000000000100100100000100000000000100100100000,
|
|
100000000000200000200000200000000000100100100000,
|
|
100000000000100100100000100000000000100100100000,
|
|
100000000000200000200000200000000000100100100000,
|
|
100000000000100100100000100000000000100100100000,
|
|
100000000000200000200000200000000000100000100000,
|
|
100000000000100000000000100000000000100000000000,
|
|
100000200000100000200000100000000000100000100000,
|
|
100000000000100000000000100000000000100000000000,
|
|
100000200000100000200000100000000000100000100000,
|
|
100000000000100000000000100000000000100000000000,
|
|
100000200000100000200000100000000000100000100000,
|
|
100000100000000000100000100000100000100000000000,
|
|
100000100000100100100000100000000000100000100000,
|
|
#GOGOSTART
|
|
300000000000100000100000300000000000100100100000,
|
|
300000000000200200200000200000000000100000100000,
|
|
300000000000100000100000300000000000100000100100,
|
|
100000100100100000200200200000000000100000100000,
|
|
300000000000100000100000300000000000100100100000,
|
|
300000000000200200200000200000000000100000100000,
|
|
300000000000100000100000300000000000100000100100,
|
|
100000100100100000200200200000100100100000000000,
|
|
500000000000000000000000000000000000000000000800,
|
|
#GOGOEND
|
|
|
|
|
|
#END
|
|
|
|
|
|
COURSE:Normal
|
|
LEVEL:3
|
|
SCOREINIT:870
|
|
SCOREDIFF:240
|
|
|
|
|
|
#START
|
|
|
|
|
|
000000000000000000000000000000000000000000000000,
|
|
#BPMCHANGE 105.37
|
|
000000000000000000000000000000000000000000000000,
|
|
#BPMCHANGE 105
|
|
100000000000100000000000100000200000100000000000,
|
|
100000000000000000000000100000000000000000000000,
|
|
100000000000100000000000100000200000100000000000,
|
|
100000000000000000000000100000000000000000000000,
|
|
100000000000100000000000100000200000100000000000,
|
|
100000000000000000000000200000000000000000000000,
|
|
100000000000100000000000100000200000100000000000,
|
|
100000000000000000000000200000000000000000000000,
|
|
100000100000000000000000100000100000000000000000,
|
|
100000100000100000000000100000000000000000000000,
|
|
100000100000100000000000100000000000000000000000,
|
|
100000100000100000000000100000000000000000000000,
|
|
100000100000100000000000100000000000000000000000,
|
|
100000100000100000000000200000000000000000000000,
|
|
100000100000100000000000200000000000000000000000,
|
|
100000100000100000000000200000000000000000000000,
|
|
100000100000100000000000100000000000100000000000,
|
|
500000000000000000000000000000800000000000000000,
|
|
000000000000000000000000000000000000100000100000,
|
|
100000000000000000000000100000000000100000100000,
|
|
100000000000000000000000200000000000100000100000,
|
|
100000000000000000000000100000000000100000100000,
|
|
100000000000000000000000200000000000100000100000,
|
|
100000000000000000000000200000000000100000100000,
|
|
100000000000000000000000200000000000100000100000,
|
|
100000000000000000000000200000000000100000100000,
|
|
100000000000300000000000300000000000000000000000,
|
|
100000000000200000000000100000000000200000000000,
|
|
100000000000200000000000100000000000000000000000,
|
|
100000000000200000000000100000000000200000000000,
|
|
100000000000200000000000100000000000000000000000,
|
|
100000000000200000000000100000000000200000000000,
|
|
100000000000200000000000100000000000000000000000,
|
|
100000100000000000000000100000100000000000000000,
|
|
100000000000100000000000100000000000000000000000,
|
|
#GOGOSTART
|
|
100000000000100000100000100000000000100000100000,
|
|
100000000000200000000000200000000000100000100000,
|
|
100000000000100000100000100000000000000000000000,
|
|
300000300000300000000000300000000000000000000000,
|
|
300000000000100000100000100000000000100000100000,
|
|
100000000000200000000000200000000000100000100000,
|
|
100000000000100000100000100000000000000000000000,
|
|
300000300000300000000000300000000000400000000000,
|
|
500000000000000000000000000000000000000000800000,
|
|
#GOGOEND
|
|
|
|
|
|
#END
|
|
|
|
|
|
COURSE:Easy
|
|
LEVEL:2
|
|
SCOREINIT:700
|
|
SCOREDIFF:230
|
|
|
|
|
|
#START
|
|
|
|
|
|
000000000000000000000000000000000000000000000000,
|
|
#BPMCHANGE 105.37
|
|
000000000000000000000000000000000000000000000000,
|
|
#BPMCHANGE 105
|
|
100000000000100000000000100000000000000000000000,
|
|
100000000000200000000000100000000000000000000000,
|
|
100000000000100000000000100000000000000000000000,
|
|
100000000000200000000000100000000000000000000000,
|
|
100000000000100000000000100000000000100000000000,
|
|
100000000000100000000000100000000000000000000000,
|
|
100000000000100000000000100000000000100000000000,
|
|
100000000000100000000000100000000000000000000000,
|
|
200000000000000000000000200000000000000000000000,
|
|
100000000000100000000000100000000000000000000000,
|
|
100000000000100000000000100000000000000000000000,
|
|
100000000000100000000000100000000000000000000000,
|
|
100000000000100000000000100000000000000000000000,
|
|
100000000000100000000000100000000000000000000000,
|
|
200000000000200000000000200000000000000000000000,
|
|
100000000000100000000000100000000000000000000000,
|
|
200000000000200000000000200000000000000000000000,
|
|
500000000000000000000000000000800000000000000000,
|
|
000000000000000000000000000000000000100000000000,
|
|
100000000000000000000000100000000000100000000000,
|
|
100000000000000000000000100000000000100000000000,
|
|
100000000000000000000000100000000000100000000000,
|
|
100000000000000000000000100000000000100000000000,
|
|
100000000000000000000000200000000000100000000000,
|
|
100000000000000000000000200000000000100000000000,
|
|
100000000000000000000000200000000000100000000000,
|
|
100000000000000000000000100000000000000000000000,
|
|
100000000000100000000000100000000000100000000000,
|
|
100000000000000000000000200000000000000000000000,
|
|
100000000000100000000000100000000000100000000000,
|
|
100000000000000000000000200000000000000000000000,
|
|
100000000000100000000000100000000000100000000000,
|
|
100000000000000000000000200000000000000000000000,
|
|
100000000000000000000000100000000000000000000000,
|
|
100000000000100000000000100000000000000000000000,
|
|
#GOGOSTART
|
|
300000000000000000000000300000000000000000000000,
|
|
300000000000000000000000300000000000000000000000,
|
|
100000000000100000000000100000000000000000000000,
|
|
300000000000300000000000300000000000000000000000,
|
|
300000000000000000000000300000000000000000000000,
|
|
300000000000000000000000300000000000000000000000,
|
|
100000000000100000000000100000000000000000000000,
|
|
300000000000300000000000300000000000300000000000,
|
|
500000000000000000000000000000000000000000000000,
|
|
000008000000000000000000000000000000000000000000,
|
|
#GOGOEND
|
|
|
|
|
|
#END
|
|
|