Files
ESE/01 Pop/Walking on Sunshine/Walking on Sunshine.tja
T
2023-06-15 19:15:39 -05:00

809 lines
18 KiB
Plaintext

//TJADB Project
TITLE:Walking on Sunshine
TITLEJA:BE ALL RIGHT!
SUBTITLE:--Maia Lee
BPM:210.042
WAVE:Walking on Sunshine.ogg
OFFSET:-2.024
DEMOSTART:54.257
COURSE:Oni
LEVEL:7
BALLOON:17
#START
000000000000000000000000000000000000000000000000,
000000000000000000000000000000000000000000000000,
000000000000000000000000000000000000000000000000,
000000000000000000000000200000000000000000000000,
100000000000100000100000200000200000000000200000,
100000200000000000100000200000000000200000100000,
100100100000100000100100100000100000200000000000,
100000000000200000000000100000100000200000100000,
100000000000200000000000100000200000200000100000,
100000000000200000000000100000100000200000000000,
100000000000200000000000100000100000200000000000,
100000000000200000000000100000100000200000100000,
100000000000200000000000100000200000200000100000,
100000000000200000000000200000100000100000100000,
200000100000200000100000100100100000200000000000,
100000000000100000100000100000000000200000000000,
100000000000200000000000100000100000200000000000,
100000000000100000100000100000000000200000000000,
100000000000200000000000100000100000200000000000,
100000000000100000100000100000000000200000000000,
100000000000200000000000100000100000200000000000,
100000000000100000100000100000000000200000000000,
100000100000100000100000000000100000200000000000,
100000000000100000100000100000000000200000000000,
100000000000200000000000100000100000200000000000,
100000000000100000100000100000000000200000000000,
100000000000200000000000100000100000200000000000,
100000000000200000100000100000000000200000100000,
100000100000200000000000100000100000200000000000,
100000000000200000100000100000000000200000100000,
100000100000200000100000000000100000200000000000,
100000000000100000100000200000200000200000100000,
100000100000200000100000000000100000200000000000,
100000000000100000100000200000200000200000100000,
100000100000200000100000000000100000200000000000,
100000000000000000000000200000000000000000000000,
100000000000100000100000200000200000000000200000,
100000200000000000100000200000000000200000100000,
000000000000200000000000100000100000200000000000,
100000000000100000100000200000200000200000100000,
100000100000200000100000000000100000200000000000,
100000000000100000100000200000200000200000100000,
100000100000200000100000000000100000200000000000,
100000000000000000000000200000000000000000000000,
100000000000100000100000200000200000000000200000,
100000200000000000100000200000000000200000100000,
100000000000100000100000000000000000100000000000,
100000000000200000000000100000100000200000100000,
100000000000300000000000000000000000300000000000,
100100100000100100100000100000100000200000000000,
100000000000100000100000000000000000100000000000,
000000000000100000000000100000100000200000100000,
100000000000300000000000000000000000300000000000,
100000000000200000100000100000200000100000000000,
100000000000100000100000000000000000100000000000,
000000000000100000000000100000100000200000100000,
100000000000700000000000000000000000000000000000,
000000000000000000000000800000000000100000000000,
100000100000100000200000200000200000300000000000,
100000000000200000000000100000100000200000100000,
100000000000200000100000200000200000000000200000,
100000200000000000100000200000000000200000100000,
100000100000100000200000200000200000300000000000,
100000000000200000000000100000100000200000100000,
100000000000200000100000200000200000000000200000,
100000200000000000100000200000000000200000100000,
000000100000200000000000100000200000200000100000,
100000000000000000000000000000000000000000000000,
#END
COURSE:Hard
LEVEL:5
STYLE:Double
BALLOON:16
SCOREINIT:970
#START P1
,
,
,
10101012,
02022020,
10101012,
1100201000102000,
02,
00112201,
01012021,
,
1000200011002000,
10201120,
10202111,
,
10111020,
10201120,
,
,
10111020,
10201120,
,
11110120,
10111020,
10201120,
,
,
10111021,
11201120,
,
,
10112221,
11210000,
10201121,
10201120,
02,
1000101020200011,
01012021,
,
10112221,
11210000,
10201121,
10201120,
10201121,
10201120,
10201121,
,
10101120,
1305,
000000000008000000000000100000100000200000100000,
,
10200120,
00201120,
1204,
30110010,
00101120,
1700,
0081,
10110030,
02,
0000111020200011,
01012021,
,
10201121,
10201120,
10200121,
11201221,
1,
#END
#START P2
,
,
,
02,
10112201,
01012021,
,
1000200011002000,
10201120,
1000200011002000,
10201120,
02,
10112201,
01012021,
21201120,
,
,
10111020,
10201120,
,
,
10111020,
,
,
,
10111020,
10201120,
,
,
10111021,
11210000,
10201121,
10201120,
10112221,
11210000,
10201120,
10201120,
10201121,
10200120,
10201121,
10201120,
10112221,
11210000,
02,
1000101020200011,
01012021,
10110120,
10200120,
00201120,
1204,
30110010,
00101120,
3405,
000000000008000000000000100000100000200000100000,
,
10200120,
0700,
08,
,
10201121,
10201120,
10200121,
10110030,
02,
0000111020200011,
01012021,
01201221,
#END
STYLE:Single
BALLOON:15
SCOREINIT:770
SCOREDIFF:180
#START
,
,
,
000000000000000000000000200000000000000000000000,
100000000000100000100000200000200000000000100000,
000000100000000000100000200000000000200000100000,
100100000000100000100000000000100000200000000000,
100000000000200000000000100100000000200000000000,
100000000000200000000000100000100000200000000000,
100000000000200000000000100100000000200000000000,
100000000000200000000000100000100000200000000000,
100000000000200000000000100100000000200000000000,
100000000000200000000000100000100000200000000000,
100000000000200000000000200000100000100000100000,
200000000000200000000000100000100000200000000000,
100000000000100000100000100000000000200000000000,
100000000000200000000000100000100000200000000000,
100000000000100000100000100000000000200000000000,
100000000000200000000000100000100000200000000000,
100000000000100000100000100000000000200000000000,
100000000000200000000000100000100000200000000000,
100000000000100000100000100000000000200000000000,
100000100000100000100000000000100000200000000000,
100000000000100000100000100000000000200000000000,
100000000000200000000000100000100000200000000000,
100000000000100000100000100000000000200000000000,
100000000000200000000000100000100000200000000000,
100000000000100000100000100000000000200000100000,
100000100000200000000000100000100000200000000000,
100000000000100000100000100000000000200000100000,
100000100000200000100000000000000000000000000000,
100000000000100000100000200000200000200000100000,
100000100000200000100000000000100000200000000000,
100000000000100000100000200000200000200000100000,
100000100000200000100000000000000000000000000000,
000000000000000000000000200000000000000000000000,
100000000000100000100000200000200000000000100100,
000000100000000000100000200000000000200000100000,
100000000000200000000000100000100000200000000000,
100000000000100000100000200000200000200000100000,
100000100000200000100000000000100000200000000000,
100000000000100000100000200000200000200000100000,
100000100000200000100000000000000000000000000000,
000000000000000000000000200000000000000000000000,
100000000000100000100000100000100000000000100100,
000000100000000000100000200000000000200000100000,
100000000000100000100000000000100000200000000000,
000000000000100000000000100000100000200000000000,
100000000000300000000000000000000000300000000000,
100000000000200000000000100000100000200000000000,
100000000000100000100000000000000000100000000000,
000000000000100000000000100000100000200000000000,
100000000000300000000000000000000000300000000000,
100000000000200000000000100000100000200000000000,
100000000000100000100000000000000000100000000000,
000000000000100000000000100000100000200000000000,
100000000000700000000000000000000000000000000000,
000000000000000000800000000000000000100000000000,
100000000000100000100000000000000000300000000000,
000000000000000000000000200000000000000000000000,
000000000000100100100000200000200000000000100100,
000000100000000000100000200000000000200000100000,
100000000000000000100000000000000000300000000000,
000000000000000000000000200000000000000000000000,
000000000000100100100000200000200000000000100100,
000000100000000000100000200000000000200000100000,
000000100000200000000000100000200000200000100000,
100000000000000000000000000000000000000000000000,
#END
COURSE:Normal
LEVEL:4
STYLE:Double
SCOREINIT:1160
#START P1
,
,
,
,
,
,
10010110,
1200,
00001100,
1200,
00001100,
1200,
00001100,
1200,
10110000,
10110000,
10001100,
1200,
12,
10110000,
10001100,
1200,
11110000,
10110000,
10001100,
1200,
12,
10110000,
10001100,
1200,
,
10111110,
10001100,
1220,
1200,
02,
00111101,
01001011,
,
1220,
1200,
10111110,
10001100,
10201100,
1210,
10201100,
10110010,
0100,
0103,
,
10201100,
1212,
1212,
0001,
10110010,
0100,
0500,
000000000008000000000000000000000000100000000000,
10110030,
02,
00111101,
01001011,
,
1,
1,
1,
11101100,
3,
#END
#START P2
,
,
,
02,
00111101,
01001011,
10010110,
00001100,
1200,
00001100,
1200,
00001100,
1200,
00001100,
00000110,
12,
1200,
10110000,
10001100,
1200,
12,
10110000,
,
1200,
12,
10110000,
10001100,
1200,
12,
10110000,
11110000,
1220,
1200,
10111110,
10001100,
10201100,
1210,
10201100,
1,
10111110,
10001100,
1220,
1200,
02,
01111010,
01001010,
,
10201100,
1212,
1001,
10110010,
0100,
0103,
,
10201100,
1212,
0500,
000000000008000000000000000000000000000000000000,
,
1,
1,
1001,
10010030,
02,
00111101,
01001011,
0404,
#END
STYLE:Single
SCOREINIT:1030
SCOREDIFF:290
#START
,
,
,
,
,
,
100000000000000000100000000000100000100000000000,
100000000000200000000000000000000000000000000000,
100000000000000000000000100000100000000000000000,
100000000000200000000000000000000000000000000000,
100000000000000000000000100000100000000000000000,
100000000000200000000000000000000000000000000000,
100000000000000000000000100000100000000000000000,
100000000000200000000000000000000000000000000000,
100000000000100000100000000000100000100000000000,
100000000000100000100000000000000000000000000000,
100000000000000000000000100000100000000000000000,
100000000000000000000000200000000000000000000000,
100000000000200000000000000000000000000000000000,
100000000000100000100000000000000000000000000000,
100000000000000000000000100000100000000000000000,
100000000000000000000000200000000000000000000000,
100000100000100000100000000000000000000000000000,
100000000000100000100000000000000000000000000000,
100000000000000000000000100000100000000000000000,
100000000000000000000000200000000000000000000000,
100000000000200000000000000000000000000000000000,
100000000000100000100000000000000000000000000000,
100000000000000000000000100000100000000000000000,
100000000000000000000000200000000000000000000000,
100000100000100000100000000000000000000000000000,
100000000000100000100000100000100000100000000000,
100000000000000000000000100000100000000000000000,
100000000000200000000000200000000000000000000000,
100000000000200000000000000000000000000000000000,
000000000000000000000000200000000000000000000000,
000000000000100000100000100000100000000000100000,
000000100000000000000000100000000000100000100000,
000000000000000000000000000000000000000000000000,
100000000000200000000000200000000000000000000000,
100000000000200000000000000000000000000000000000,
100000000000100000100000100000100000100000000000,
100000000000000000000000100000100000000000000000,
100000000000200000000000100000100000000000000000,
100000000000200000000000100000100000100000000000,
100000000000200000000000100000100000000000000000,
100000000000100000100000000000000000100000000000,
000000000000100000000000000000000000000000000000,
000000000000100000000000000000000000300000000000,
000000000000000000000000000000000000000000000000,
100000000000200000000000100000100000000000000000,
100000000000200000000000100000000000200000000000,
100000000000200000000000100000000000200000000000,
000000000000000000000000000000000000100000000000,
100000000000100000100000000000000000100000000000,
000000000000100000000000000000000000000000000000,
000000000000500000000000000000000000000000000000,
000000800000000000000000000000000000100000000000,
100000000000100000100000000000000000300000000000,
000000000000000000000000200000000000000000000000,
000000000000100000100000100000100000000000100000,
000000100000000000000000100000000000100000100000,
100000000000000000100000000000000000300000000000,
000000000000000000000000000000000000000000000000,
100000000000200000000000100000100000200000000000,
100000000000200000000000100000100000200000000000,
000000100000100000000000100000100000000000000000,
300000000000000000000000000000000000000000000000,
#END
COURSE:Easy
LEVEL:4
STYLE:Double
SCOREINIT:1310
#START P1
,
,
,
,
,
0005,
000000000000000000000008000000000000000000000000,
01,
00110001,
01001011,
,
1100,
10001100,
1100,
3001,
1,
10001100,
,
10001100,
,
10001100,
,
11110000,
10110000,
,
10110000,
,
10110000,
,
10110000,
11110000,
,
10001100,
,
10001100,
,
00110001,
01000011,
,
10110000,
,
10110000,
,
10110000,
12,
10110010,
10010010,
000000000000500000000000000000000000000000000008,
0303,
,
1120,
1210,
1120,
0001,
1001,
0100,
0500,
000000000008000000000000000000000000100000000000,
10010030,
,
1200,
10001100,
,
1200,
10001100,
1200,
100011110,
1,
#END
#START P2
,
,
,
01,
00110001,
01000050,
000000000000000000000008000000000000000000000000,
1100,
10001100,
1100,
10001100,
01,
00110001,
01001011,
,
10110000,
,
10110000,
,
10110000,
,
10110000,
11110000,
,
10001100,
,
10001100,
,
10001100,
,
11110000,
10110000,
,
10110000,
,
10110000,
120,
10110000,
12,
,
10001100,
,
10001100,
,
00110001,
01000010,
10010010,
1210,
1120,
0001,
10010010,
000000000000500000000000000000000000000000000008,
0303,
0001,
1001,
0100,
0500,
000000000008000000000000000000000000100000000000,
10010030,
,
10001100,
1201,
10010030,
00001100,
1200,
10001100,
10001111,
#END
STYLE:Single
SCOREINIT:1110
SCOREDIFF:370
#START
000000000000000000000000000000000000000000000000,
000000000000000000000000000000000000000000000000,
000000000000000000000000000000000000000000000000,
000000000000000000000000100000000000000000000000,
000000000000100000100000000000000000000000100000,
000000100000000000000000000000000000100000100000,
000000000000000000000000000000000000000000000000,
100000000000000000000000000000000000000000000000,
100000000000000000000000100000100000000000000000,
100000000000000000000000000000000000000000000000,
100000000000000000000000200000200000000000000000,
100000000000000000000000000000000000000000000000,
100000000000000000000000100000100000000000000000,
100000000000000000000000000000000000000000000000,
100000000000000000000000000000000000100000000000,
100000000000000000000000000000000000000000000000,
100000000000000000000000100000100000000000000000,
100000000000000000000000000000000000000000000000,
100000000000000000000000200000200000000000000000,
100000000000000000000000000000000000000000000000,
100000000000000000000000100000100000000000000000,
100000000000000000000000000000000000000000000000,
100000100000100000100000000000000000000000000000,
100000000000000000000000000000000000000000000000,
100000000000000000000000100000100000000000000000,
100000000000000000000000000000000000000000000000,
100000000000000000000000200000200000000000000000,
100000000000000000000000000000000000000000000000,
100000000000000000000000100000100000000000000000,
100000000000000000000000000000000000000000000000,
100000100000100000100000000000000000000000000000,
100000000000000000000000200000000000000000000000,
100000000000000000000000100000100000000000000000,
100000000000000000000000200000000000000000000000,
100000000000000000000000200000200000000000000000,
100000000000000000000000100000000000000000000000,
000000000000100000100000000000000000000000100000,
000000100000000000000000000000000000100000100000,
000000000000000000000000000000000000000000000000,
100000000000000000000000200000000000000000000000,
100000000000000000000000100000100000000000000000,
100000000000000000000000200000000000000000000000,
100000000000000000000000200000200000000000000000,
100000000000000000000000100000000000000000000000,
000000000000200000200000000000000000000000100000,
000000100000000000000000000000000000100000100000,
000000000000000000000000000000000000000000000000,
100000000000000000000000200000000000000000000000,
100000000000100000000000000000000000100000000000,
100000000000000000000000200000000000100000000000,
100000000000000000000000000000000000000000000000,
100000000000000000000000200000000000000000000000,
100000000000100000000000000000000000100000000000,
100000000000000000000000200000000000100000000000,
100000000000000000000000000000000000000000000000,
100000000000000000000000200000000000000000000000,
100000000000500000000000000000000000000000000000,
000000800000000000000000000000000000100000000000,
100000000000000000100000000000000000300000000000,
000000000000000000000000000000000000000000000000,
000000000000000000000000000000000000000000000000,
000000000000000000000000000000000000100000000000,
100000000000000000100000000000000000300000000000,
000000000000000000000000100000000000000000000000,
000000000000100000100000100000100000000000000000,
100000000000000000000000000000000000100000100000,
000000000000000000000000100000100000100000100000,
100000000000000000000000000000000000000000000000,
#END