230 lines
7.9 KiB
Plaintext
230 lines
7.9 KiB
Plaintext
//TJADB Project
|
|
TITLE:Xiao Wei
|
|
TITLEZH:小薇
|
|
SUBTITLE:--Huang Pin-Yuan
|
|
SUBTITLEZH:黃品源
|
|
BPM:78
|
|
WAVE:Xiao Wei.ogg
|
|
OFFSET:-3.330
|
|
DEMOSTART:54.716
|
|
|
|
COURSE:Oni
|
|
LEVEL:7
|
|
SCOREINIT:1000
|
|
SCOREDIFF:250
|
|
|
|
|
|
#START
|
|
|
|
|
|
100000100000200000100000100000100100200000100000,
|
|
100000100000200000100000100200100100200000200200,
|
|
100000100000200000100000100000100100200000100000,
|
|
100000100000200000100000100200100100200000200200,
|
|
100000100000200100200100100000100000200000200100,
|
|
200000200000100000200000100200100100200000200200,
|
|
100000200000100000200100200000200200100000200100,
|
|
200000000000100000200000000200100100200000100100,
|
|
200100200100200000100200000200200000000200200000,
|
|
100000100000200000100100100000100000200000000000,
|
|
100000100000200000100100100000100000200000000000,
|
|
100000100000200100100100100000100000200100100100,
|
|
100000100000200000100100200100100000200000200200,
|
|
100000100000200000100100100000100000200000000000,
|
|
100000100000200000100100100000100000200000000000,
|
|
100000100000200100100100100000100000200100100100,
|
|
100000100100200100200000100100100000200200100100,
|
|
100000100000200000100000100100100100200000100000,
|
|
100100200200100200100200100100200100100000200000,
|
|
100000100000200000100100100000100000200000100000,
|
|
100000200200200100200000200100200200100000000000,
|
|
|
|
#GOGOSTART
|
|
300000300000300000100200000400000000100000100100,
|
|
100000100200100000200200200000100100100000100000,
|
|
500000000000000000000008000000000000100000100000,
|
|
|
|
#GOGOEND
|
|
100000100100200000100000100000100100200000100000,
|
|
100100200200100200100200100100200100100000200000,
|
|
100000100000200000100100100000100000200000100000,
|
|
100000200200200100200000200100200200100000000000,
|
|
|
|
#GOGOSTART
|
|
300000300000300000100200000400000000100000100100,
|
|
100000100200100000200200200000100100100000100000,
|
|
000000500000000000000000000000000008000000000000,
|
|
|
|
#GOGOEND
|
|
|
|
|
|
#END
|
|
|
|
|
|
COURSE:Hard
|
|
LEVEL:4
|
|
SCOREINIT:1160
|
|
SCOREDIFF:340
|
|
|
|
|
|
#START
|
|
|
|
|
|
100000000000200000000000100000100000200000000000,
|
|
100000000000200000000000100000100000200000000000,
|
|
100000000000200000100000100000000000200000100000,
|
|
100000000000200000000000100000100000200000000000,
|
|
100000000000200000000000100000100000200000000000,
|
|
100000000000200000000000100000100000200000000000,
|
|
100000000000200000100000100000000000200000100000,
|
|
100000000000100000200000000000200000200000000000,
|
|
100000000000100000200000000000200000000000000000,
|
|
100000100000200000000000100000100000200000000000,
|
|
100000100000200000000000100000100000200000000000,
|
|
100000100000200000100000100000100000200000000000,
|
|
100000100000200000100000100000100000200000000000,
|
|
100000100000200000000000100000100000200000000000,
|
|
100000100000200000000000100000100000200000000000,
|
|
100000100000200000100000100000100000200000000000,
|
|
100000100000200000100000100000000000100000100000,
|
|
100000000000200000000000100000100000100000000000,
|
|
100000000000200000000000100000100000100000000000,
|
|
100000100000200000000000100000100000200000000000,
|
|
100000200200200000200000200000000000200000000000,
|
|
#GOGOSTART
|
|
300000300000300000000400000400000000000000100100,
|
|
100000200000200000000000000000100000100000100000,
|
|
500000000000000000800000000000000000100000100000,
|
|
#GOGOEND
|
|
100000000000200000000000100000100000100000000000,
|
|
100000100000200000000000100000100000100000000000,
|
|
100000100000200000000000100000100000200000000000,
|
|
100000200200200000200000200000000000200000000000,
|
|
#GOGOSTART
|
|
300000300000300000000400000400000000000000100100,
|
|
100000200000200000000000000000100000100000100000,
|
|
000000500000000000000000000000800000000000000000,
|
|
#GOGOEND
|
|
|
|
|
|
#END
|
|
|
|
|
|
COURSE:Normal
|
|
LEVEL:4
|
|
SCOREINIT:1340
|
|
SCOREDIFF:430
|
|
|
|
|
|
#START
|
|
|
|
|
|
100000000000200000000000100000100000200000000000,
|
|
100000000000200000000000100000000000000000000000,
|
|
100000000000200000000000100000000000200000000000,
|
|
100000000000000000000000100000000000000000000000,
|
|
100000000000200000000000100000100000200000000000,
|
|
100000000000200000000000100000000000000000000000,
|
|
100000000000200000000000100000000000200000000000,
|
|
100000000000100000000000000000000000100000000000,
|
|
100000000000100000000000000000000000200000000000,
|
|
100000000000200000000000100000100000200000000000,
|
|
100000000000200000000000100000100000200000000000,
|
|
100000000000200000000000100000100000200000000000,
|
|
100000000000200000000000100000000000000000000000,
|
|
100000000000200000000000100000100000200000000000,
|
|
100000000000200000000000100000100000200000000000,
|
|
100000000000200000000000100000100000200000000000,
|
|
100000000000200000000000100000000000000000000000,
|
|
100000100000100000000000100000100000100000000000,
|
|
100000100000100000000000100000000000000000000000,
|
|
200000200000200000000000200000200000200000000000,
|
|
200000200000200000000000200000000000000000000000,
|
|
#GOGOSTART
|
|
300000300000300000000000400000000000000000000000,
|
|
100000000000000000000000000000100000100000100000,
|
|
500000000000000000800000000000000000000000000000,
|
|
#GOGOEND
|
|
100000100000100000000000100000100000100000000000,
|
|
100000100000100000000000100000000000000000000000,
|
|
200000200000200000000000200000200000200000000000,
|
|
200000200000200000000000200000000000000000000000,
|
|
#GOGOSTART
|
|
300000300000300000000000400000000000000000000000,
|
|
100000000000000000000000000000100000100000100000,
|
|
000000500000000000000000000000800000000000000000,
|
|
#GOGOEND
|
|
|
|
|
|
#END
|
|
|
|
|
|
COURSE:Easy
|
|
LEVEL:6
|
|
BALLOON:8
|
|
SCOREINIT:800
|
|
SCOREDIFF:190
|
|
|
|
|
|
#START
|
|
|
|
|
|
300000000000000000300000000000000000300000000000,
|
|
300000000000000000300000000000000000300000300000,
|
|
000000000000000000000000000000000000000000000000,
|
|
000000000000000000000000000000000000000000000000,
|
|
300000000000000000300000000000000000300000000000,
|
|
300000000000000000300000000000000000300000300000,
|
|
000000000000000000000000200200100000100000100000,
|
|
100000002000000020000000100000002000000020000000,
|
|
100000100000200000100000100000000100200000100000,
|
|
100000100000200000000000100000000100200000100000,
|
|
100000100000200000000000100000000100200000100000,
|
|
700000000000000000000800000000000000000000000000,
|
|
500000000000000000000000000000000000000000000000,
|
|
000000000000000000000080000000000000000000000000,
|
|
600000000000000000000000000000000000000000000000,
|
|
000000000000000000000000000000000080000000000000,
|
|
100000100000100200000200100100100000200100100000,
|
|
400000000000000000000000000000000000000000000000,
|
|
100000100100000100200000000000100000200100100000,
|
|
100000100000200000100100100000000100100000100000,
|
|
100000000100000000100100100000000000200000100000,
|
|
100000100000200000000000100000200000100200200000,
|
|
100000100100000100200000000000100000200100100000,
|
|
100000100000200000100100100000000100100000100000,
|
|
100000000100000000100100100000000000200000000000,
|
|
200000200000100000000100200000000000100100100000,
|
|
100000000100200000100000100100000000200000200000,
|
|
100000000100200000100000100000200000200200200000,
|
|
100000000100200000100000100100000200200000200000,
|
|
100000000100200000100000100000200000200200200000,
|
|
100000000100200000100000100100000200200000200000,
|
|
100000000100200000100000100000000000200000000000,
|
|
100000000100000000100000100000000100000000100000,
|
|
300000000300000000300000600000000000000080000000,
|
|
200000002000000020000000200000002000000020000000,
|
|
#GOGOSTART
|
|
100000000100200000100000100000200200100200200000,
|
|
100000000100200000100000100000100100000100100000,
|
|
100000000100200000100000100000200200100200200000,
|
|
100000000100200000100000200000200000200200000000,
|
|
100000000100200000100000100000200200100200200000,
|
|
100000000100200000100000100000100100000200200000,
|
|
100000000100200000100000100000200200100200200000,
|
|
100000000100000000100100100000000000200200200000,
|
|
100100100000200000100000100100100000200000200000,
|
|
100100100000200000100000100000200000200200200000,
|
|
100100100000200000100000100100100000200000200000,
|
|
100100100000200000100000100000200000200200200000,
|
|
300000000000400000000000300000000000400000000000,
|
|
100000100000000000100000100000200200000200200000,
|
|
100000200000100000200000100000200200200000100000,
|
|
000000100000200000100000100100100100100100100100,
|
|
200000000000000000000000000000000000000000000000,
|
|
#GOGOEND
|
|
|
|
|
|
#END
|
|
|