361 lines
4.1 KiB
Plaintext
361 lines
4.1 KiB
Plaintext
//TJADB Project
|
|
TITLE:Yes we are
|
|
TITLEJA:Yes we are
|
|
SUBTITLE:--Sandaime J SOUL BROTHERS (EXILE TRIBE)
|
|
BPM:128
|
|
WAVE:Yes we are.ogg
|
|
OFFSET:-2.076
|
|
DEMOSTART:78.239
|
|
|
|
COURSE:Oni
|
|
LEVEL:7
|
|
BALLOON:30
|
|
SCOREINIT:850
|
|
SCOREDIFF:245
|
|
|
|
|
|
#START
|
|
|
|
|
|
1001001001001000,
|
|
,
|
|
2002002002002000,
|
|
,
|
|
1001001001001000,
|
|
,
|
|
2002002002002000,
|
|
1000100110101111,
|
|
|
|
#GOGOSTART
|
|
1002001002001000,
|
|
|
|
#GOGOEND
|
|
0202,
|
|
|
|
#GOGOSTART
|
|
1002001002001000,
|
|
|
|
#GOGOEND
|
|
0202,
|
|
|
|
#GOGOSTART
|
|
1002001002001000,
|
|
|
|
#GOGOEND
|
|
0202,
|
|
|
|
#GOGOSTART
|
|
1002001002001000,
|
|
|
|
#GOGOEND
|
|
7,
|
|
0084,
|
|
1001201001001001,
|
|
0010010010021020,
|
|
1001201001001001,
|
|
0010010010021020,
|
|
1001201001001001,
|
|
0010010010021020,
|
|
1001201001001001,
|
|
0010010010021020,
|
|
1002102002001002,
|
|
0020020010021020,
|
|
1002102002001002,
|
|
0020020010021020,
|
|
1002102002001002,
|
|
0020020010021020,
|
|
1002102002001002,
|
|
0020020020021020,
|
|
1002102010021012,
|
|
1002102010021012,
|
|
1002102010021012,
|
|
1002102010202020,
|
|
1010101210101012,
|
|
1010101210101012,
|
|
5,
|
|
000000000000000000000008000000200000100100200000,
|
|
|
|
#GOGOSTART
|
|
1102102010221020,
|
|
1020120210221020,
|
|
1001201012001001,
|
|
2010120010201120,
|
|
1102102010221020,
|
|
1020120210221020,
|
|
1001201012001001,
|
|
2010120010202210,
|
|
1002001002001000,
|
|
2210210022102022,
|
|
1002001002001022,
|
|
0220201022102022,
|
|
1002001002001000,
|
|
2210210022102022,
|
|
1002001002001000,
|
|
20212222,
|
|
|
|
#GOGOEND
|
|
3,
|
|
|
|
|
|
#END
|
|
|
|
|
|
COURSE:Hard
|
|
LEVEL:3
|
|
SCOREINIT:1660
|
|
SCOREDIFF:795
|
|
|
|
|
|
#START
|
|
|
|
|
|
10010010,
|
|
,
|
|
10010010,
|
|
,
|
|
10010010,
|
|
,
|
|
10010010,
|
|
,//8
|
|
|
|
#GOGOSTART
|
|
500000000000000000000000000000000000000008000000,//9
|
|
|
|
#GOGOEND
|
|
0202,//10
|
|
|
|
#GOGOSTART
|
|
500000000000000000000000000000000000000008000000,//11
|
|
|
|
#GOGOEND
|
|
0202,//12
|
|
|
|
#GOGOSTART
|
|
500000000000000000000000000000000000000008000000,//13
|
|
|
|
#GOGOEND
|
|
0202,//14
|
|
|
|
#GOGOSTART
|
|
500000000000000000000000000000000000000008000000,//15
|
|
|
|
#GOGOEND
|
|
,
|
|
,
|
|
1101,
|
|
0011,
|
|
10010010,
|
|
,
|
|
1101,
|
|
,
|
|
10010010,
|
|
,
|
|
1101,
|
|
0011,
|
|
10010010,
|
|
,
|
|
1101,
|
|
0011,
|
|
10010010,
|
|
,
|
|
10101011,
|
|
10101011,
|
|
10101011,
|
|
10101111,
|
|
11111111,
|
|
11111111,
|
|
5,
|
|
000000000000000000000008000000000000000000000000,//41
|
|
|
|
#GOGOSTART
|
|
10101011,
|
|
10201111,
|
|
1212,
|
|
,
|
|
10101011,
|
|
10201111,
|
|
1212,
|
|
,
|
|
500000000000000000000000000000000000000008000000,
|
|
0202,
|
|
500000000000000000000000000000000000000008000000,
|
|
0202,
|
|
500000000000000000000000000000000000000008000000,
|
|
0202,
|
|
500000000000000000000000000000000000000008000000,
|
|
,//57
|
|
|
|
#GOGOEND
|
|
3,
|
|
,
|
|
#END
|
|
|
|
COURSE:Normal
|
|
LEVEL:1
|
|
|
|
#START
|
|
1,
|
|
,
|
|
1,
|
|
,
|
|
1,
|
|
,
|
|
1,
|
|
,//8
|
|
|
|
#GOGOSTART
|
|
500000000000000000000000000000000000000008000000,//9
|
|
|
|
#GOGOEND
|
|
,//10
|
|
|
|
#GOGOSTART
|
|
500000000000000000000000000000000000000008000000,//11
|
|
|
|
#GOGOEND
|
|
,//12
|
|
|
|
#GOGOSTART
|
|
500000000000000000000000000000000000000008000000,//13
|
|
|
|
#GOGOEND
|
|
,//14
|
|
|
|
#GOGOSTART
|
|
500000000000000000000000000000000000000008000000,//15
|
|
|
|
#GOGOEND
|
|
,
|
|
,
|
|
1001,
|
|
,
|
|
1,
|
|
,
|
|
1001,
|
|
,
|
|
1,
|
|
,
|
|
1101,
|
|
,
|
|
1,
|
|
,
|
|
1101,
|
|
,
|
|
1,
|
|
,
|
|
1110,
|
|
1110,
|
|
1110,
|
|
1110,
|
|
3333,
|
|
3333,
|
|
6,
|
|
000000000000000000000008000000000000000000000000,//41
|
|
|
|
#GOGOSTART
|
|
1011,
|
|
1011,
|
|
1011,
|
|
,
|
|
1011,
|
|
1011,
|
|
1011,
|
|
,
|
|
500000000000000000000000000000000000000008000000,
|
|
0202,
|
|
500000000000000000000000000000000000000008000000,
|
|
0202,
|
|
500000000000000000000000000000000000000008000000,
|
|
0202,
|
|
500000000000000000000000000000000000000008000000,
|
|
,//57
|
|
|
|
#GOGOEND
|
|
3,
|
|
,
|
|
#END
|
|
|
|
COURSE:Easy
|
|
LEVEL:1
|
|
|
|
#START
|
|
1,
|
|
,
|
|
1,
|
|
,
|
|
1,
|
|
,
|
|
1,
|
|
,//8
|
|
|
|
#GOGOSTART
|
|
500000000000000000000000000000000000000008000000,//9
|
|
|
|
#GOGOEND
|
|
,//10
|
|
|
|
#GOGOSTART
|
|
500000000000000000000000000000000000000008000000,//11
|
|
|
|
#GOGOEND
|
|
,//12
|
|
|
|
#GOGOSTART
|
|
500000000000000000000000000000000000000008000000,//13
|
|
|
|
#GOGOEND
|
|
,//14
|
|
|
|
#GOGOSTART
|
|
500000000000000000000000000000000000000008000000,//15
|
|
|
|
#GOGOEND
|
|
,
|
|
,
|
|
1,
|
|
,
|
|
1,
|
|
,
|
|
1,
|
|
,
|
|
1,
|
|
,
|
|
1001,
|
|
,
|
|
1,
|
|
,
|
|
1001,
|
|
,
|
|
1,
|
|
,
|
|
11,
|
|
1,
|
|
11,
|
|
1,
|
|
33,
|
|
33,
|
|
6,
|
|
000000000000000000000008000000000000000000000000,//41
|
|
|
|
#GOGOSTART
|
|
11,
|
|
1,
|
|
1001,
|
|
,
|
|
11,
|
|
1,
|
|
1001,
|
|
,
|
|
500000000000000000000000000000000000000008000000,
|
|
,
|
|
500000000000000000000000000000000000000008000000,
|
|
,
|
|
500000000000000000000000000000000000000008000000,
|
|
,
|
|
500000000000000000000000000000000000000008000000,
|
|
,//57
|
|
|
|
#GOGOEND
|
|
3,
|
|
,
|
|
#END |