Files
ESE/01 Pop/Yoihanabi/Yoihanabi.tja
T
2023-07-06 03:20:33 -04:00

264 lines
2.7 KiB
Plaintext

TITLE:Yoihanabi
TITLEJA:宵花火
SUBTITLE:--banbanzai
SUBTITLEJA:ばんばんざい
BPM:80
WAVE:Yoihanabi.ogg
OFFSET:-1.865
DEMOSTART:49.115
COURSE:Oni
LEVEL:7
BALLOON:
SCOREINIT:
SCOREDIFF:
#START
22,
2220,
22,
2220,
1000202022200000,
1000202022200000,
22,
2220,
1022201200112000,
1022201200112000,
1020202120102010,
1000200010212010,
1022201200112000,
1022201202121000,
12210125,
000000000000000008000000200100100000400000000000,
#GOGOSTART
1010201112102021,
1010201112102022,
1010201211102021,
1021212000002022,
1010201112102021,
1010201112102120,
1001201102110111,
500000000008000000000100100000100100000100100000,
1011121010111220,
1011121012101220,
1011121012101220,
1011011000112020,
1011121010111220,
1011121010101212,
1011011000002010,
1011011030002000,
#GOGOEND
4443,
#GOGOSTART
1010201112102021,
1010201112102022,
1010201211102021,
1021212000002022,
1010201112102021,
1010201112102120,
1001201102110111,
500000000008000000100000100200100100100200100100,
#GOGOEND
2400,
11212211,
2,
,
#END
COURSE:Hard
LEVEL:4
BALLOON:21,18,18,18
SCOREINIT:
SCOREDIFF:
#START
22,
2220,
22,
2220,
10202200,
10202200,
22,
2220,
1022202000102000,
1022202000102000,
10212120,
10102120,
1022202000102000,
1022202000102000,
9009,
8004,
#GOGOSTART
1010201110002000,
1010201110002000,
11221120,
1010111000002000,
1010201110002000,
11221122,
10270000,
0822,
1011101010102000,
1022202010102000,
1011101010001010,
70000008,
1011101010102000,
1022202010102020,
500000000000000000000008000000000000200000000000,
600000000000000008000000300000000000200000000000,
#GOGOEND
4443,
#GOGOSTART
1010201110002020,
1010201110002010,
11221120,
1010111000002020,
1010201110002010,
11221122,
10270000,
0000800011101010,
#GOGOEND
4400,
10212010,
2,
,
#END
COURSE:Normal
LEVEL:2
BALLOON:15,13,13,13
SCOREINIT:
SCOREDIFF:
#START
2,
22,
2,
22,
1110,
2220,
2,
22,
1202,
1202,
1212,
10102220,
1202,
1202,
9009,
8,
#GOGOSTART
10111020,
10111010,
1212,
10110010,
10111020,
10111011,
10070000,
0820,
10101110,
10102220,
10111011,
70000008,
10201110,
10102220,
500000000000000000000008000000000000000000000000,
600000000000000000000008000000000000000000000000,
#GOGOEND
4443,
#GOGOSTART
10111020,
10111010,
1212,
10110010,
10111020,
10111011,
10070000,
00801110,
#GOGOEND
4400,
11,
2,
,
#END
COURSE:Easy
LEVEL:2
BALLOON:12,11,8,9
SCOREINIT:
SCOREDIFF:
#START
2,
22,
2,
22,
11,
22,
2,
22,
1100,
1100,
11,
12,
1100,
1100,
9009,
8,
#GOGOSTART
1110,
1110,
1111,
1100,
1110,
1112,
10070000,
0800,
2220,
1110,
1112,
70000800,
2220,
1112,
500000000000000000000008000000000000000000000000,
600000000000000000000008000000000000000000000000,
#GOGOEND
4440,
#GOGOSTART
1110,
1110,
1112,
1100,
1110,
1112,
10070000,
0833,
#GOGOEND
4400,
1,
2,
,
#END