1321 lines
28 KiB
Plaintext
1321 lines
28 KiB
Plaintext
//TJADB Project
|
||
TITLE:You Can’t Hurry Love
|
||
TITLEJA:You Can’t Hurry Love
|
||
SUBTITLE:--The Supremes
|
||
BPM:193
|
||
WAVE:You Can’t Hurry Love.ogg
|
||
OFFSET:-2.916
|
||
DEMOSTART:17.526
|
||
|
||
COURSE:Oni
|
||
LEVEL:6
|
||
|
||
STYLE:Double
|
||
|
||
|
||
#START P1
|
||
|
||
|
||
0
|
||
#BPMCHANGE 191.5
|
||
0
|
||
#BPMCHANGE 186.5
|
||
0
|
||
#BPMCHANGE 195
|
||
0,
|
||
#BPMCHANGE 192.5
|
||
0
|
||
#BPMCHANGE 184
|
||
0
|
||
#BPMCHANGE 196
|
||
0
|
||
1,
|
||
#BPMCHANGE 182
|
||
3
|
||
#BPMCHANGE 192.5
|
||
202,
|
||
#BPMCHANGE 193.6
|
||
0202,
|
||
100200100201,
|
||
001200100200,
|
||
100200100201,
|
||
001200202200,
|
||
100200100201,
|
||
001200100200,
|
||
100200100201,
|
||
002200202200,
|
||
100100200201,
|
||
001202102200,
|
||
200200100101,
|
||
002102102200,
|
||
1122,
|
||
0210,
|
||
1111,
|
||
101001000100,
|
||
100200102200,
|
||
102200100200,
|
||
100200102200,
|
||
102200100200,
|
||
100200100201,
|
||
001200222222,
|
||
100100102200,
|
||
100101100100,
|
||
100200100201,
|
||
001001101100,
|
||
100200100201,
|
||
001001101100,
|
||
102200102201,
|
||
002200102200,
|
||
102200102201,
|
||
002200102200,
|
||
100200100201,
|
||
001001101100,
|
||
100200100201,
|
||
001001101100,
|
||
100100100102,
|
||
002002100100,
|
||
1111,
|
||
500000000000000000000000000000000008000000000000,
|
||
100200102200,
|
||
102200100200,
|
||
100200102200,
|
||
102200100200,
|
||
100200100201,
|
||
001200222222,
|
||
1111,
|
||
101001000100,
|
||
100100200201,
|
||
001202102200,
|
||
200200100101,
|
||
002102102200,
|
||
1121,
|
||
0210,
|
||
100100102200,
|
||
100101100100,
|
||
102200102201,
|
||
002200102200,
|
||
102200102201,
|
||
002200102200,
|
||
100200100201,
|
||
001001101100,
|
||
100200100201,
|
||
001001101100,
|
||
102200102201,
|
||
002200102200,
|
||
102200102201,
|
||
002200102222,
|
||
100100100102,
|
||
002002100100,
|
||
1111,
|
||
500000000000000000000000000000000008000000000000,
|
||
100100200201,
|
||
001202102200,
|
||
200200100101,
|
||
002122122100,
|
||
101102201100,
|
||
0210,
|
||
1111,
|
||
101001000100,
|
||
100200102200,
|
||
102200100200,
|
||
100200102200,
|
||
102200100200,
|
||
100200100201,
|
||
001200222222,
|
||
100100102200,
|
||
1111,
|
||
3,
|
||
|
||
|
||
#END
|
||
|
||
|
||
#START P2
|
||
|
||
|
||
0
|
||
#BPMCHANGE 191.5
|
||
0
|
||
#BPMCHANGE 186.5
|
||
0
|
||
#BPMCHANGE 195
|
||
0,
|
||
#BPMCHANGE 192.5
|
||
0
|
||
#BPMCHANGE 184
|
||
0
|
||
#BPMCHANGE 196
|
||
01,
|
||
#BPMCHANGE 182
|
||
3
|
||
#BPMCHANGE 192.5
|
||
202,
|
||
#BPMCHANGE 193.6
|
||
0202,
|
||
100200100201,
|
||
001200100200,
|
||
100200100201,
|
||
001200202200,
|
||
100200100201,
|
||
001200100200,
|
||
100200100201,
|
||
002200202200,
|
||
100200102200,
|
||
102200100200,
|
||
100200102200,
|
||
102200100200,
|
||
100200100201,
|
||
001200222222,
|
||
1111,
|
||
101001000100,
|
||
100100200201,
|
||
001202102200,
|
||
200200100101,
|
||
002102102200,
|
||
1122,
|
||
0210,
|
||
100100102200,
|
||
100101100100,
|
||
102200102201,
|
||
002200102200,
|
||
102200102201,
|
||
002200102200,
|
||
100200100201,
|
||
001001101100,
|
||
100200100201,
|
||
001001101100,
|
||
102200102201,
|
||
002200102200,
|
||
102200102201,
|
||
002200102222,
|
||
100100100102,
|
||
002002100100,
|
||
1111,
|
||
500000000000000000000000000000000008000000000000,
|
||
100100200201,
|
||
001202102200,
|
||
200200100101,
|
||
002102102200,
|
||
1122,
|
||
0210,
|
||
1111,
|
||
101001000100,
|
||
100200102200,
|
||
102200100200,
|
||
100200102200,
|
||
102200100200,
|
||
100200100201,
|
||
001200222222,
|
||
100100102200,
|
||
100101100100,
|
||
100200100201,
|
||
001001101100,
|
||
100200100201,
|
||
001001101100,
|
||
102200102201,
|
||
002200102200,
|
||
102200102201,
|
||
002200102200,
|
||
100200100201,
|
||
001001101100,
|
||
100200100201,
|
||
001001101100,
|
||
100100100102,
|
||
002002100100,
|
||
1111,
|
||
500000000000000000000000000000000008000000000000,
|
||
100200102200,
|
||
102200100200,
|
||
100200102200,
|
||
102200100200,
|
||
100200100201,
|
||
001200222222,
|
||
1111,
|
||
101001000100,
|
||
100100200201,
|
||
001202102200,
|
||
200200100101,
|
||
002122122100,
|
||
1122,
|
||
0210,
|
||
100100102200,
|
||
1111,
|
||
3,
|
||
|
||
|
||
#END
|
||
|
||
|
||
STYLE:Single
|
||
|
||
|
||
#START
|
||
|
||
|
||
000000000000
|
||
#BPMCHANGE 191.5
|
||
000000000000
|
||
#BPMCHANGE 186.5
|
||
000000000000
|
||
#BPMCHANGE 195
|
||
000000000000,
|
||
#BPMCHANGE 192.5
|
||
000000000000
|
||
#BPMCHANGE 184
|
||
000000000000
|
||
#BPMCHANGE 196
|
||
000000000000100000000000,
|
||
#BPMCHANGE 182
|
||
300000000000
|
||
#BPMCHANGE 192.5
|
||
200000000000000000000000200000000000,
|
||
#BPMCHANGE 193.6
|
||
000000000000200000000000000000000000200000000000,
|
||
100000000000200000000000100000000000200000001000,
|
||
000000001000200000000000100000000000200000000000,
|
||
100000000000200000000000100000000000200000001000,
|
||
000000001000200000000000200000002000200000000000,
|
||
100000000000200000000000100000000000200000001000,
|
||
000000001000200000000000100000000000200000000000,
|
||
100000000000200000000000100000000000200000001000,
|
||
000000001000200000000000200000000000000000000000,
|
||
100000000000100000000000200000000000200000001000,
|
||
000000001000200000002000100000002000200000000000,
|
||
100000000000200000000000100000000000100000001000,
|
||
000000002000100000002000100000002000200000000000,
|
||
100000000000100000000000200000000000200000000000,
|
||
000000000000200000000000100000000000000000000000,
|
||
100000000000100000000000100000000000100000000000,
|
||
100000001000000000001000000000000000100000000000,
|
||
100000000000100000000000200000000000200000001000,
|
||
000000001000200000002000100000002000200000000000,
|
||
200000000000200000000000100000000000100000001000,
|
||
000000002000100000002000100000002000200000000000,
|
||
100000000000100000000000200000000000200000000000,
|
||
000000000000100000000000100000000000000000000000,
|
||
100000000000100000000000100000002000200000000000,
|
||
100000000000100000000000100000000000100000000000,
|
||
100000000000200000000000100000000000200000001000,
|
||
000000001000000000001000100000001000100000000000,
|
||
100000000000200000000000100000000000200000001000,
|
||
000000001000000000001000100000001000100000002000,
|
||
100000000000200000000000100000000000200000001000,
|
||
000000001000000000001000100000001000200000000000,
|
||
100000000000200000000000100000000000200000001000,
|
||
000000001000000000001000100000001000200000002000,
|
||
100000000000200000000000100000000000200000001000,
|
||
000000001000000000002000100000001000200000000000,
|
||
100000000000200000000000100000000000200000001000,
|
||
000000001000000000002000100000001000200000002000,
|
||
100000000000100000000000100000000000100000002000,
|
||
000000002000000000002000100000000000100000000000,
|
||
100000000000100000000000100000000000100000000000,
|
||
500000000000000000000000000000000008000000000000,
|
||
100000000000100000000000200000000000200000001000,
|
||
000000001000200000002000100000002000200000000000,
|
||
200000000000200000000000100000000000100000001000,
|
||
000000002000100000002000100000002000200000000000,
|
||
100000000000100000000000200000000000100000000000,
|
||
000000000000200000000000100000000000000000000000,
|
||
100000000000100000000000100000000000100000000000,
|
||
100000001000000000001000000000000000100000000000,
|
||
100000000000100000000000200000000000200000001000,
|
||
000000001000200000002000100000002000200000000000,
|
||
200000000000200000000000100000000000100000001000,
|
||
000000002000100000002000100000002000200000000000,
|
||
100000000000100000000000200000000000100000000000,
|
||
000000000000200000000000100000000000000000000000,
|
||
100000000000100000000000100000002000200000000000,
|
||
100000000000100000001000100000000000100000000000,
|
||
100000000000200000000000100000000000200000001000,
|
||
000000001000000000001000100000001000100000000000,
|
||
100000000000200000000000100000000000200000001000,
|
||
000000001000000000001000100000001000100000002000,
|
||
100000000000200000000000100000000000200000001000,
|
||
000000001000000000001000100000001000200000000000,
|
||
100000000000200000000000100000000000200000001000,
|
||
000000001000000000001000100000001000200000002000,
|
||
100000000000200000000000100000000000200000001000,
|
||
000000001000000000002000100000001000200000000000,
|
||
100000000000200000000000100000000000200000001000,
|
||
000000001000000000002000100000001000200000002000,
|
||
100000000000100000000000100000000000100000002000,
|
||
000000002000000000002000100000000000100000000000,
|
||
100000000000100000000000100000000000100000000000,
|
||
500000000000000000000000000000000008000000000000,
|
||
100000000000100000000000200000000000200000001000,
|
||
000000001000200000002000100000002000200000000000,
|
||
200000000000200000000000100000000000100000001000,
|
||
000000001000200020001000200020001000200000000000,
|
||
100000001000100000002000200000001000100000000000,
|
||
000000000000200000000000100000000000000000000000,
|
||
100000000000100000000000100000000000100000000000,
|
||
100000001000000000001000000000000000100000000000,
|
||
100000000000100000000000200000000000200000001000,
|
||
000000001000200000002000100000002000200000000000,
|
||
200000000000200000000000100000000000100000001000,
|
||
000000001000200020001000200020001000200000000000,
|
||
100000001000100000002000200000001000100000000000,
|
||
000000000000300000000000300000000000000000000000,
|
||
100000000000100000000000100000002000200000000000,
|
||
100000000000100000000000100000000000100000000000,
|
||
300000000000000000000000000000000000000000000000,
|
||
|
||
|
||
#END
|
||
|
||
|
||
COURSE:Hard
|
||
LEVEL:5
|
||
|
||
STYLE:Double
|
||
SCOREINIT:430
|
||
|
||
|
||
#START P1
|
||
|
||
|
||
,
|
||
0001,
|
||
#BPMCHANGE 194
|
||
3202,
|
||
0202,
|
||
100200100201,
|
||
001100100000,
|
||
100200100201,
|
||
001100100000,
|
||
100200100201,
|
||
001100100000,
|
||
100200100201,
|
||
001100100000,
|
||
1122,
|
||
0202,
|
||
2211,
|
||
0202,
|
||
1122,
|
||
0110,
|
||
1110,
|
||
101001000000,
|
||
100200100201,
|
||
001200100200,
|
||
100200100201,
|
||
001200100200,
|
||
1122,
|
||
0110,
|
||
1110,
|
||
1110,
|
||
100100100101,
|
||
001200000200,
|
||
100100100101,
|
||
001200000200,
|
||
100200000201,
|
||
001000200200,
|
||
100200000201,
|
||
001000200200,
|
||
100100100101,
|
||
001200000200,
|
||
100200000201,
|
||
001200000200,
|
||
100100100102,
|
||
002002200200,
|
||
1111,
|
||
500000000000000000000000000000000008000000000000,
|
||
100200100201,
|
||
001200100200,
|
||
100200100201,
|
||
001200100200,
|
||
1122,
|
||
0110,
|
||
1110,
|
||
101001000000,
|
||
1122,
|
||
0202,
|
||
2211,
|
||
0202,
|
||
1122,
|
||
0110,
|
||
1110,
|
||
1110,
|
||
100200000201,
|
||
001000200200,
|
||
100200000201,
|
||
001000200200,
|
||
100100100101,
|
||
001200000200,
|
||
100100100101,
|
||
001200000200,
|
||
100200000201,
|
||
001000200200,
|
||
100100100101,
|
||
001000200200,
|
||
100100100102,
|
||
002002200200,
|
||
1111,
|
||
500000000000000000000000000000000008000000000000,
|
||
1122,
|
||
0202,
|
||
2211,
|
||
0202,
|
||
1122,
|
||
0110,
|
||
1110,
|
||
101001000000,
|
||
100100200201,
|
||
001200100200,
|
||
200200100101,
|
||
001200100200,
|
||
1122,
|
||
0110,
|
||
1110,
|
||
1111,
|
||
3,
|
||
|
||
|
||
#END
|
||
|
||
|
||
#START P2
|
||
|
||
|
||
,
|
||
0001,
|
||
#BPMCHANGE 194
|
||
3202,
|
||
0202,
|
||
100200100201,
|
||
001100100000,
|
||
100200100201,
|
||
001100100000,
|
||
100200100201,
|
||
001100100000,
|
||
100200100201,
|
||
001100100000,
|
||
100200100201,
|
||
001200100200,
|
||
100200100201,
|
||
001200100200,
|
||
1122,
|
||
0110,
|
||
1110,
|
||
101001000000,
|
||
1122,
|
||
0202,
|
||
2211,
|
||
0202,
|
||
1122,
|
||
0110,
|
||
1110,
|
||
1110,
|
||
100200000201,
|
||
001200200200,
|
||
100200000201,
|
||
001000200200,
|
||
100100100101,
|
||
001200000200,
|
||
100100100101,
|
||
001200000200,
|
||
100200000201,
|
||
001000200200,
|
||
100100100101,
|
||
001000200200,
|
||
100100100102,
|
||
002002200200,
|
||
1111,
|
||
500000000000000000000000000000000008000000000000,
|
||
1122,
|
||
0202,
|
||
2211,
|
||
0202,
|
||
1122,
|
||
0110,
|
||
1110,
|
||
101001000000,
|
||
100200100201,
|
||
001200100200,
|
||
100200100201,
|
||
001200100200,
|
||
1122,
|
||
0110,
|
||
1110,
|
||
1110,
|
||
100100100101,
|
||
001200000200,
|
||
100100100101,
|
||
001200000200,
|
||
100200000201,
|
||
001000200200,
|
||
100200000201,
|
||
001000200200,
|
||
100100100101,
|
||
001200000200,
|
||
100200000201,
|
||
001200000200,
|
||
100100100102,
|
||
002002200200,
|
||
1111,
|
||
500000000000000000000000000000000008000000000000,
|
||
100200100201,
|
||
001200100200,
|
||
100200100201,
|
||
001200100200,
|
||
1122,
|
||
0110,
|
||
1110,
|
||
101001000000,
|
||
1122,
|
||
0202,
|
||
2211,
|
||
0202,
|
||
1122,
|
||
0110,
|
||
1110,
|
||
1111,
|
||
3,
|
||
|
||
|
||
#END
|
||
|
||
|
||
STYLE:Single
|
||
SCOREINIT:200
|
||
SCOREDIFF:180
|
||
|
||
|
||
#START
|
||
|
||
|
||
000000000000000000000000000000000000000000000000,
|
||
000000000000000000000000000000000000100000000000,
|
||
#BPMCHANGE 194
|
||
300000000000200000000000000000000000200000000000,
|
||
000000000000200000000000000000000000200000000000,
|
||
100000000000200000000000100000000000200000001000,
|
||
000000001000100000000000100000000000000000000000,
|
||
100000000000200000000000100000000000200000001000,
|
||
000000001000100000000000200000000000000000000000,
|
||
100000000000200000000000100000000000200000001000,
|
||
000000001000100000000000100000000000000000000000,
|
||
100000000000200000000000100000000000200000001000,
|
||
000000001000100000000000100000000000000000000000,
|
||
100000000000100000000000200000000000200000000000,
|
||
000000000000200000000000000000000000200000000000,
|
||
200000000000200000000000100000000000100000000000,
|
||
000000000000200000000000000000000000200000000000,
|
||
100000000000100000000000200000000000200000000000,
|
||
000000000000100000000000100000000000000000000000,
|
||
100000000000100000000000100000000000000000000000,
|
||
100000001000000000001000000000000000000000000000,
|
||
100000000000200000000000100000000000200000001000,
|
||
000000001000200000000000100000000000200000000000,
|
||
100000000000200000000000100000000000200000001000,
|
||
000000001000200000000000100000000000200000000000,
|
||
100000000000200000000000100000000000200000001000,
|
||
000000001000200000000000100000000000200000000000,
|
||
100000000000100000000000100000000000000000000000,
|
||
100000000000100000000000100000000000000000000000,
|
||
100000000000100000000000100000000000100000001000,
|
||
000000001000200000000000000000000000200000000000,
|
||
100000000000100000000000100000000000100000001000,
|
||
000000001000200000000000200000000000200000000000,
|
||
100000000000100000000000100000000000100000001000,
|
||
000000001000200000000000000000000000200000000000,
|
||
100000000000100000000000100000000000100000001000,
|
||
000000001000200000000000200000000000200000000000,
|
||
100000000000100000000000100000000000100000001000,
|
||
000000001000200000000000000000000000200000000000,
|
||
100000000000100000000000100000000000100000001000,
|
||
000000001000200000000000200000000000200000000000,
|
||
100000000000100000000000100000000000100000002000,
|
||
000000002000000000002000200000000000200000000000,
|
||
100000000000100000000000100000000000100000000000,
|
||
500000000000000000000000000000008000000000000000,
|
||
100000000000100000000000200000000000200000000000,
|
||
000000000000200000000000000000000000200000000000,
|
||
200000000000200000000000100000000000100000000000,
|
||
000000000000200000000000000000000000200000000000,
|
||
100000000000100000000000200000000000200000000000,
|
||
000000000000100000000000100000000000000000000000,
|
||
100000000000100000000000100000000000000000000000,
|
||
100000001000000000001000000000000000000000000000,
|
||
100000000000200000000000100000000000200000001000,
|
||
000000001000200000000000100000000000200000000000,
|
||
100000000000200000000000100000000000200000001000,
|
||
000000001000200000000000100000000000200000000000,
|
||
100000000000200000000000100000000000200000001000,
|
||
000000001000200000000000100000000000200000000000,
|
||
100000000000100000000000100000000000000000000000,
|
||
100000000000100000000000100000000000000000000000,
|
||
100000000000100000000000100000000000100000001000,
|
||
000000001000200000000000000000000000200000000000,
|
||
100000000000100000000000100000000000100000001000,
|
||
000000001000200000000000200000000000200000000000,
|
||
100000000000100000000000100000000000100000001000,
|
||
000000001000200000000000000000000000200000000000,
|
||
100000000000100000000000100000000000100000001000,
|
||
000000001000200000000000200000000000200000000000,
|
||
100000000000100000000000100000000000100000001000,
|
||
000000001000200000000000000000000000200000000000,
|
||
100000000000100000000000100000000000100000001000,
|
||
000000001000200000000000200000000000200000000000,
|
||
100000000000100000000000100000000000100000002000,
|
||
000000002000000000002000200000000000200000000000,
|
||
100000000000100000000000100000000000100000000000,
|
||
500000000000000000000000000000008000000000000000,
|
||
100000000000100000000000200000000000200000000000,
|
||
000000001000200000000000100000000000200000000000,
|
||
200000000000200000000000100000000000100000000000,
|
||
000000001000200000000000100000002000200000000000,
|
||
100000000000100000000000200000000000200000000000,
|
||
000000000000100000000000100000000000000000000000,
|
||
100000000000100000000000100000000000000000000000,
|
||
100000001000000000001000000000000000000000000000,
|
||
100000000000200000000000100000000000200000001000,
|
||
000000001000200000000000100000000000200000000000,
|
||
100000000000200000000000100000000000200000001000,
|
||
000000001000200000000000100000002000200000000000,
|
||
100000000000200000000000100000000000200000001000,
|
||
000000001000200000000000100000000000200000000000,
|
||
100000000000100000000000100000000000000000000000,
|
||
100000000000100000000000100000000000100000000000,
|
||
300000000000000000000000000000000000000000000000,
|
||
|
||
|
||
#END
|
||
|
||
|
||
COURSE:Normal
|
||
LEVEL:4
|
||
|
||
STYLE:Double
|
||
SCOREINIT:710
|
||
|
||
|
||
#START P1
|
||
|
||
|
||
,
|
||
0001,
|
||
#BPMCHANGE 194
|
||
3,
|
||
,
|
||
1011,
|
||
0110,
|
||
1011,
|
||
0110,
|
||
1201,
|
||
0110,
|
||
1201,
|
||
0110,
|
||
1111,
|
||
,
|
||
2222,
|
||
,
|
||
1111,
|
||
0110,
|
||
11,
|
||
1110,
|
||
1202,
|
||
1202,
|
||
1202,
|
||
1202,
|
||
1202,
|
||
0202,
|
||
1110,
|
||
11,
|
||
100200000201,
|
||
001001100000,
|
||
100200000201,
|
||
001001100000,
|
||
100200000201,
|
||
001001100000,
|
||
100200000201,
|
||
001001100000,
|
||
100200000201,
|
||
001001100000,
|
||
100200000201,
|
||
001001100000,
|
||
1110,
|
||
12,
|
||
1110,
|
||
500000000000000000000000000000000008000000000000,
|
||
1111,
|
||
,
|
||
2222,
|
||
,
|
||
1111,
|
||
0110,
|
||
11,
|
||
1110,
|
||
1202,
|
||
1202,
|
||
1202,
|
||
1202,
|
||
1202,
|
||
0110,
|
||
1110,
|
||
11,
|
||
100200000201,
|
||
001001100000,
|
||
100200000201,
|
||
001001100000,
|
||
100100100001,
|
||
001001100000,
|
||
100100100001,
|
||
001001100000,
|
||
100200000201,
|
||
001001100000,
|
||
100200000201,
|
||
001001100000,
|
||
1110,
|
||
12,
|
||
1110,
|
||
500000000000000000000000000000000008000000000000,
|
||
1111,
|
||
,
|
||
2222,
|
||
,
|
||
1111,
|
||
0110,
|
||
11,
|
||
1110,
|
||
1202,
|
||
100200002200,
|
||
1202,
|
||
100200002200,
|
||
1202,
|
||
0110,
|
||
1110,
|
||
1111,
|
||
3,
|
||
|
||
|
||
#END
|
||
|
||
|
||
#START P2
|
||
|
||
|
||
,
|
||
0001,
|
||
#BPMCHANGE 194
|
||
3,
|
||
,
|
||
1201,
|
||
0110,
|
||
1201,
|
||
0110,
|
||
1011,
|
||
0110,
|
||
1011,
|
||
0110,
|
||
1202,
|
||
1202,
|
||
1202,
|
||
1202,
|
||
1202,
|
||
0202,
|
||
11,
|
||
1110,
|
||
1111,
|
||
,
|
||
2222,
|
||
,
|
||
1111,
|
||
0110,
|
||
1110,
|
||
11,
|
||
100200000201,
|
||
001001100000,
|
||
100200000201,
|
||
001001100000,
|
||
100200000201,
|
||
001001100000,
|
||
100200000201,
|
||
001001100000,
|
||
100200000201,
|
||
001001100000,
|
||
100200000201,
|
||
001001100000,
|
||
1110,
|
||
12,
|
||
1110,
|
||
500000000000000000000000000000000008000000000000,
|
||
1202,
|
||
1202,
|
||
1202,
|
||
1202,
|
||
1202,
|
||
0110,
|
||
11,
|
||
1110,
|
||
1111,
|
||
,
|
||
2222,
|
||
,
|
||
1111,
|
||
0110,
|
||
111,
|
||
11,
|
||
100100100001,
|
||
001001100000,
|
||
100100100001,
|
||
001001100000,
|
||
100200000201,
|
||
001001100000,
|
||
100200000201,
|
||
001001100000,
|
||
100100100001,
|
||
001001100000,
|
||
100100100001,
|
||
001001100000,
|
||
12,
|
||
1110,
|
||
1110,
|
||
500000000000000000000000000000000008000000000000,
|
||
1202,
|
||
100200002200,
|
||
1202,
|
||
100200002200,
|
||
1202,
|
||
0110,
|
||
11,
|
||
1110,
|
||
1111,
|
||
,
|
||
2222,
|
||
,
|
||
1111,
|
||
0110,
|
||
1110,
|
||
1111,
|
||
3,
|
||
|
||
|
||
#END
|
||
|
||
|
||
STYLE:Single
|
||
SCOREINIT:780
|
||
SCOREDIFF:200
|
||
|
||
|
||
#START
|
||
|
||
|
||
000000000000000000000000000000000000000000000000,
|
||
000000000000000000000000000000000000100000000000,
|
||
#BPMCHANGE 194
|
||
300000000000000000000000000000000000000000000000,
|
||
000000000000000000000000000000000000000000000000,
|
||
100000000000000000000000100000000000100000000000,
|
||
000000000000100000000000100000000000000000000000,
|
||
100000000000000000000000100000000000100000000000,
|
||
000000000000100000000000100000000000000000000000,
|
||
100000000000000000000000100000000000100000000000,
|
||
000000000000100000000000100000000000000000000000,
|
||
100000000000000000000000100000000000000000000000,
|
||
100000000000100000000000100000000000000000000000,
|
||
100000000000100000000000100000000000100000000000,
|
||
000000000000000000000000000000000000000000000000,
|
||
200000000000200000000000200000000000200000000000,
|
||
000000000000000000000000000000000000000000000000,
|
||
100000000000200000000000000000000000200000000000,
|
||
000000000000100000000000100000000000000000000000,
|
||
100000000000200000000000000000000000200000000000,
|
||
000000000000100000000000100000000000000000000000,
|
||
100000000000100000000000100000000000100000000000,
|
||
000000000000000000000000000000000000000000000000,
|
||
200000000000200000000000200000000000200000000000,
|
||
000000000000000000000000000000000000000000000000,
|
||
100000000000200000000000000000000000200000000000,
|
||
000000000000100000000000100000000000000000000000,
|
||
100000000000100000000000100000000000000000000000,
|
||
100000000000000000000000100000000000000000000000,
|
||
100000000000200000000000000000000000200000001000,
|
||
000000001000000000001000100000000000000000000000,
|
||
100000000000200000000000000000000000200000001000,
|
||
000000001000000000001000100000000000000000000000,
|
||
100000000000200000000000000000000000200000001000,
|
||
000000001000000000001000100000000000000000000000,
|
||
100000000000200000000000000000000000200000001000,
|
||
000000001000000000001000100000000000000000000000,
|
||
100000000000200000000000000000000000200000001000,
|
||
000000001000000000001000100000000000000000000000,
|
||
100000000000200000000000000000000000200000001000,
|
||
000000001000000000001000100000000000000000000000,
|
||
100000000000100000000000100000000000000000000000,
|
||
100000000000100000000000100000000000100000000000,
|
||
100000000000100000000000100000000000000000000000,
|
||
500000000000000000000000000000008000000000000000,
|
||
100000000000100000000000100000000000100000000000,
|
||
000000000000000000000000000000000000000000000000,
|
||
200000000000200000000000200000000000200000000000,
|
||
000000000000000000000000000000000000000000000000,
|
||
100000000000200000000000000000000000200000000000,
|
||
000000000000100000000000100000000000000000000000,
|
||
100000000000200000000000000000000000200000000000,
|
||
000000000000100000000000100000000000000000000000,
|
||
100000000000100000000000100000000000100000000000,
|
||
000000000000000000000000000000000000000000000000,
|
||
200000000000200000000000200000000000200000000000,
|
||
000000000000000000000000000000000000000000000000,
|
||
100000000000200000000000000000000000200000000000,
|
||
000000000000100000000000100000000000000000000000,
|
||
100000000000100000000000100000000000000000000000,
|
||
100000000000000000000000100000000000000000000000,
|
||
100000000000200000000000000000000000200000001000,
|
||
000000001000000000001000100000000000000000000000,
|
||
100000000000200000000000000000000000200000001000,
|
||
000000001000000000001000100000000000000000000000,
|
||
100000000000200000000000000000000000200000001000,
|
||
000000001000000000001000100000000000000000000000,
|
||
100000000000200000000000000000000000200000001000,
|
||
000000001000000000001000100000000000000000000000,
|
||
100000000000200000000000000000000000200000001000,
|
||
000000001000000000001000100000000000000000000000,
|
||
100000000000200000000000000000000000200000001000,
|
||
000000001000000000001000100000000000000000000000,
|
||
100000000000100000000000100000000000000000000000,
|
||
100000000000100000000000100000000000100000000000,
|
||
100000000000100000000000100000000000000000000000,
|
||
500000000000000000000000000000008000000000000000,
|
||
100000000000100000000000100000000000100000000000,
|
||
000000000000000000000000000000000000000000000000,
|
||
200000000000200000000000200000000000200000000000,
|
||
000000000000000000000000000000000000000000000000,
|
||
100000000000200000000000000000000000200000000000,
|
||
000000000000100000000000100000000000000000000000,
|
||
100000000000200000000000000000000000200000000000,
|
||
000000000000100000000000100000000000000000000000,
|
||
100000000000100000000000100000000000100000000000,
|
||
000000000000000000000000000000000000000000000000,
|
||
200000000000200000000000200000000000200000000000,
|
||
000000000000000000000000000000000000000000000000,
|
||
100000000000200000000000000000000000200000000000,
|
||
000000000000100000000000100000000000000000000000,
|
||
100000000000100000000000100000000000000000000000,
|
||
100000000000100000000000100000000000100000000000,
|
||
300000000000000000000000000000000000000000000000,
|
||
|
||
|
||
#END
|
||
|
||
|
||
COURSE:Easy
|
||
LEVEL:3
|
||
|
||
STYLE:Double
|
||
SCOREINIT:730
|
||
|
||
|
||
#START P1
|
||
|
||
|
||
,
|
||
,
|
||
#BPMCHANGE 194
|
||
3,
|
||
,
|
||
1011,
|
||
,
|
||
1011,
|
||
0110,
|
||
1002,
|
||
0202,
|
||
0202,
|
||
0200,
|
||
1011,
|
||
,
|
||
1011,
|
||
,
|
||
0202,
|
||
0110,
|
||
11,
|
||
1110,
|
||
0202,
|
||
0220,
|
||
0202,
|
||
0220,
|
||
1110,
|
||
1110,
|
||
11,
|
||
1110,
|
||
0202,
|
||
0110,
|
||
0202,
|
||
0110,
|
||
1110,
|
||
11,
|
||
1110,
|
||
11,
|
||
0202,
|
||
0110,
|
||
0202,
|
||
0110,
|
||
11,
|
||
11,
|
||
1111,
|
||
500000000000000000000000000000000008000000000000,
|
||
0202,
|
||
0220,
|
||
0202,
|
||
0220,
|
||
1110,
|
||
1110,
|
||
11,
|
||
1110,
|
||
1011,
|
||
,
|
||
1011,
|
||
,
|
||
0202,
|
||
0110,
|
||
11,
|
||
1110,
|
||
1110,
|
||
11,
|
||
1110,
|
||
11,
|
||
0202,
|
||
0110,
|
||
0202,
|
||
0110,
|
||
1110,
|
||
11,
|
||
1110,
|
||
11,
|
||
11,
|
||
11,
|
||
1111,
|
||
500000000000000000000000000000000008000000000000,
|
||
1011,
|
||
,
|
||
1011,
|
||
,
|
||
0202,
|
||
0110,
|
||
11,
|
||
1110,
|
||
1011,
|
||
,
|
||
1011,
|
||
,
|
||
0202,
|
||
0110,
|
||
11,
|
||
11,
|
||
3,
|
||
|
||
|
||
#END
|
||
|
||
|
||
#START P2
|
||
|
||
|
||
,
|
||
,
|
||
#BPMCHANGE 194
|
||
3,
|
||
,
|
||
1002,
|
||
0202,
|
||
0202,
|
||
0200,
|
||
10110,
|
||
,
|
||
1011,
|
||
0110,
|
||
0202,
|
||
0220,
|
||
0202,
|
||
0220,
|
||
1110,
|
||
1110,
|
||
11,
|
||
1110,
|
||
1011,
|
||
,
|
||
1011,
|
||
,
|
||
0202,
|
||
0110,
|
||
11,
|
||
1110,
|
||
1110,
|
||
11,
|
||
1110,
|
||
11,
|
||
0202,
|
||
0110,
|
||
0202,
|
||
0110,
|
||
1110,
|
||
11,
|
||
1110,
|
||
11,
|
||
11,
|
||
11,
|
||
1111,
|
||
500000000000000000000000000000000008000000000000,
|
||
1011,
|
||
,
|
||
1011,
|
||
,
|
||
0202,
|
||
0110,
|
||
11,
|
||
1110,
|
||
0202,
|
||
0220,
|
||
0202,
|
||
0220,
|
||
1110,
|
||
1110,
|
||
11,
|
||
1110,
|
||
0202,
|
||
0110,
|
||
0202,
|
||
0110,
|
||
1110,
|
||
11,
|
||
1110,
|
||
11,
|
||
0202,
|
||
0110,
|
||
0202,
|
||
0110,
|
||
11,
|
||
11,
|
||
1111,
|
||
500000000000000000000000000000000008000000000000,
|
||
0202,
|
||
0220,
|
||
0202,
|
||
0220,
|
||
1110,
|
||
1110,
|
||
11,
|
||
1110,
|
||
1011,
|
||
,
|
||
1011,
|
||
,
|
||
0202,
|
||
0110,
|
||
11,
|
||
11,
|
||
3,
|
||
|
||
|
||
#END
|
||
|
||
|
||
STYLE:Single
|
||
SCOREINIT:900
|
||
SCOREDIFF:220
|
||
|
||
|
||
#START
|
||
|
||
|
||
000000000000000000000000000000000000000000000000,
|
||
000000000000000000000000000000000000000000000000,
|
||
#BPMCHANGE 194
|
||
300000000000000000000000000000000000000000000000,
|
||
000000000000000000000000000000000000000000000000,
|
||
100000000000000000000000100000000000100000000000,
|
||
000000000000000000000000000000000000000000000000,
|
||
100000000000000000000000100000000000100000000000,
|
||
000000000000100000000000100000000000000000000000,
|
||
100000000000000000000000100000000000100000000000,
|
||
000000000000100000000000100000000000000000000000,
|
||
100000000000000000000000100000000000000000000000,
|
||
100000000000000000000000000000000000000000000000,
|
||
100000000000000000000000100000000000100000000000,
|
||
000000000000000000000000000000000000000000000000,
|
||
100000000000000000000000100000000000100000000000,
|
||
000000000000000000000000000000000000000000000000,
|
||
000000000000200000000000000000000000200000000000,
|
||
000000000000100000000000100000000000000000000000,
|
||
000000000000200000000000000000000000200000000000,
|
||
000000000000100000000000100000000000000000000000,
|
||
100000000000000000000000100000000000100000000000,
|
||
000000000000000000000000000000000000000000000000,
|
||
100000000000000000000000100000000000100000000000,
|
||
000000000000000000000000000000000000000000000000,
|
||
000000000000200000000000000000000000200000000000,
|
||
000000000000100000000000100000000000000000000000,
|
||
100000000000000000000000100000000000000000000000,
|
||
100000000000000000000000100000000000000000000000,
|
||
000000000000200000000000000000000000200000000000,
|
||
000000000000100000000000100000000000000000000000,
|
||
000000000000200000000000000000000000200000000000,
|
||
000000000000100000000000100000000000000000000000,
|
||
000000000000100000000000000000000000100000000000,
|
||
000000000000200000000000200000000000000000000000,
|
||
000000000000100000000000000000000000100000000000,
|
||
000000000000200000000000200000000000000000000000,
|
||
000000000000200000000000000000000000200000000000,
|
||
000000000000100000000000100000000000000000000000,
|
||
000000000000200000000000000000000000200000000000,
|
||
000000000000100000000000100000000000000000000000,
|
||
100000000000000000000000100000000000000000000000,
|
||
100000000000000000000000100000000000000000000000,
|
||
100000000000100000000000100000000000100000000000,
|
||
500000000000000000000000000000800000000000000000,
|
||
100000000000000000000000100000000000100000000000,
|
||
000000000000000000000000000000000000000000000000,
|
||
100000000000000000000000100000000000100000000000,
|
||
000000000000000000000000000000000000000000000000,
|
||
000000000000200000000000000000000000200000000000,
|
||
000000000000100000000000100000000000000000000000,
|
||
000000000000200000000000000000000000200000000000,
|
||
000000000000100000000000100000000000000000000000,
|
||
100000000000000000000000100000000000100000000000,
|
||
000000000000000000000000000000000000000000000000,
|
||
100000000000000000000000100000000000100000000000,
|
||
000000000000000000000000000000000000000000000000,
|
||
000000000000200000000000000000000000200000000000,
|
||
000000000000100000000000100000000000000000000000,
|
||
100000000000000000000000100000000000000000000000,
|
||
100000000000000000000000100000000000000000000000,
|
||
000000000000200000000000000000000000200000000000,
|
||
000000000000100000000000100000000000000000000000,
|
||
000000000000200000000000000000000000200000000000,
|
||
000000000000100000000000100000000000000000000000,
|
||
000000000000100000000000000000000000100000000000,
|
||
000000000000200000000000200000000000000000000000,
|
||
000000000000100000000000000000000000100000000000,
|
||
000000000000200000000000200000000000000000000000,
|
||
000000000000200000000000000000000000200000000000,
|
||
000000000000100000000000100000000000000000000000,
|
||
000000000000200000000000000000000000200000000000,
|
||
000000000000100000000000100000000000000000000000,
|
||
100000000000000000000000100000000000000000000000,
|
||
100000000000000000000000100000000000000000000000,
|
||
100000000000100000000000100000000000100000000000,
|
||
500000000000000000000000000000800000000000000000,
|
||
100000000000000000000000100000000000100000000000,
|
||
000000000000000000000000000000000000000000000000,
|
||
100000000000000000000000100000000000100000000000,
|
||
000000000000000000000000000000000000000000000000,
|
||
000000000000200000000000000000000000200000000000,
|
||
000000000000100000000000100000000000000000000000,
|
||
000000000000200000000000000000000000200000000000,
|
||
000000000000100000000000100000000000000000000000,
|
||
100000000000000000000000100000000000100000000000,
|
||
000000000000000000000000000000000000000000000000,
|
||
100000000000000000000000100000000000100000000000,
|
||
000000000000000000000000000000000000000000000000,
|
||
000000000000200000000000000000000000200000000000,
|
||
000000000000100000000000100000000000000000000000,
|
||
100000000000000000000000100000000000000000000000,
|
||
100000000000000000000000100000000000000000000000,
|
||
300000000000000000000000000000000000000000000000,
|
||
|
||
|
||
#END
|
||
|