569 lines
21 KiB
Plaintext
569 lines
21 KiB
Plaintext
//TJADB Project
|
|
TITLE:Blood Rage
|
|
TITLEJA:Blood Rage
|
|
SUBTITLE:--Go Shiina/GOD EATER 2 RAGE BURST
|
|
SUBTITLEJA:「ゴッドイーター2 レイジバースト」より
|
|
BPM:162
|
|
WAVE:Blood Rage.ogg
|
|
OFFSET:-1.725
|
|
DEMOSTART:13.387
|
|
|
|
|
|
COURSE:Edit
|
|
LEVEL:9
|
|
BALLOON:38
|
|
SCOREINIT:310
|
|
SCOREDIFF:73
|
|
|
|
|
|
#START
|
|
|
|
|
|
100000000000100100101010200000200000101010101010,
|
|
100000100000100100101010200000200000101010101010,
|
|
100000000000100100101010200000200000101010101010,
|
|
100000100000100100101010200000200000100100200200,
|
|
100000000000100100101010200000200000101010101010,
|
|
100000100000100100101010200000200000101010101010,
|
|
100000000000100100101010200000200000101010101010,
|
|
2222202012111111,
|
|
|
|
#GOGOSTART
|
|
2011221022101120,
|
|
2012221022101121,
|
|
2011221022111120,
|
|
2210221112101011,
|
|
2011221022101120,
|
|
2012221022101121,
|
|
2011221022111120,
|
|
1011101122221111,
|
|
|
|
2011201120102110,
|
|
2011201021102010,
|
|
2011201120102110,
|
|
2011201021102010,
|
|
2111201121102110,
|
|
2111201021112011,
|
|
2111201121102110,
|
|
1121112011221111,
|
|
|
|
21212021,
|
|
2010200020102210,
|
|
4010221040102210,
|
|
4011221112222111,
|
|
2010202010102010,
|
|
1120112022111120,
|
|
1001201020112210,
|
|
2222102011112211,
|
|
|
|
#GOGOEND
|
|
,
|
|
|
|
100100222200100222200200,
|
|
100100222200100222200200,
|
|
100100222200100222200200,
|
|
100100222200100222100200,
|
|
111100222200100222200200,
|
|
111100222200100222100200,
|
|
111100222200100222200200,
|
|
101010100000202020200000100100000000100100000000,
|
|
|
|
1120102210102022,
|
|
1120102210201022,
|
|
1010201120102010,
|
|
1120102210201022,
|
|
1120102210102022,
|
|
1120102210201022,
|
|
1010201120102010,
|
|
4000400022202011,
|
|
|
|
1010102110101021,
|
|
1010102110101021,
|
|
1012102110121021,
|
|
1012102110121021,
|
|
1012122110121221,
|
|
1012122110121221,
|
|
1012122110121221,
|
|
1012122120202000,
|
|
|
|
1111201120112011,
|
|
2111201120112021,
|
|
2211221122112211,
|
|
2212221222122121,
|
|
1022111012102000,
|
|
|
|
#GOGOSTART
|
|
2011221022101120,
|
|
2012221022101121,
|
|
2011221022111120,
|
|
2210221112101011,
|
|
2011221022101120,
|
|
2012221022101121,
|
|
2011221022111120,
|
|
1011101122221111,
|
|
|
|
2011201120102110,
|
|
2011201021102110,
|
|
2011201120102110,
|
|
2011201021102110,
|
|
2111201121102110,
|
|
2111201021112011,
|
|
2111201121102110,
|
|
1121112011221111,
|
|
|
|
21212021,
|
|
2010200020112210,
|
|
4011221040112210,
|
|
4011221112222111,
|
|
2010202010102010,
|
|
1120112022111120,
|
|
1001201020112210,
|
|
2222102011112211,
|
|
|
|
#GOGOEND
|
|
,
|
|
|
|
7,
|
|
,
|
|
8,
|
|
|
|
|
|
#END
|
|
|
|
|
|
COURSE:Oni
|
|
LEVEL:7
|
|
BALLOON:8,10,45,8,10,30
|
|
SCOREINIT:510
|
|
SCOREDIFF:120
|
|
|
|
|
|
#START
|
|
|
|
|
|
100000000000000000100000100000000000000000000000,
|
|
100000000000000000100000000000100000100000000000,
|
|
100000000000000000100000100000000000000000000000,
|
|
200000000000200000000000200000000000000000000000,
|
|
100000000000000000100000100000000000000000000000,
|
|
100000000000000000100000000000100000100000000000,
|
|
100000000000000000100000100000000000200000000000,
|
|
200000000000200000000000200000200000200200200200,
|
|
|
|
#GOGOSTART
|
|
100000100000200000000200100000100000200000100000,
|
|
000000100000200000100100100000100000200000100000,
|
|
100000100000200000000200100000100000200000100000,
|
|
400000000000400000000000100000200000200000200200,
|
|
100000100000200000000200100000100000200000100000,
|
|
000000100000200000100000000000100000200000200200,
|
|
100000100000200000000200100000100000200000000000,
|
|
100000100000200000200200100000200200100100100100,
|
|
500000000000000000000000000000000000000000000008,
|
|
000000100000200000000100100000100000200000100100,
|
|
100000100000200000700000000000000000000000800000,
|
|
000000100000200000000100100000100000200000100000,
|
|
500000000000000000000000000000000000000000000008,
|
|
000000100000200000000100100000100000200000100000,
|
|
700000000000000000000000000000000000800000000000,
|
|
100000200000100000200000100000200200100000200200,
|
|
100000100000200000200000000000100000100000100000,
|
|
200000200000000000100000100000100000200000200000,
|
|
500000000000000000000000000008000000200000000000,
|
|
300000000000300000000000400000000000400000000000,
|
|
100000100000200000200000100000100000100000100000,
|
|
200000200000100000100000100000100000200000200000,
|
|
100000100100200000100100200000100100200000100100,
|
|
200000100100200000200000100200000000200200200200,
|
|
|
|
#GOGOEND
|
|
000000000000000000000000000000000000000000000000,
|
|
700000000000000000000000000000000000000000000000,
|
|
000000000000000000000000000000000000000000000000,
|
|
000000000000000000000000000000000000000000000000,
|
|
800000000000000000000000000000000000000000000000,
|
|
100000100000200000000000100000200000000000200000,
|
|
100000100000200000000000100000200000000000200000,
|
|
100000100000200000000000100000200000000000200000,
|
|
100000100000200000100000200200100000200200100000,
|
|
100000100100200000100000100100200000200000200000,
|
|
100000200000100000200000100000200200200000000000,
|
|
100000200200100000200200100000200000200000100000,
|
|
100000000000100000000000100100100100100000000000,
|
|
100000100100200000100100100100200000100100200000,
|
|
100000100100200000200000100100200200200000000000,
|
|
100200000100200000100000100100100000200000100000,
|
|
200000100000200000100000400000100000400000100000,
|
|
100000000000100000000000300000000100100000100000,
|
|
100000000000100000000000300000000100100000100000,
|
|
100000000000100000000000300000000100100000100000,
|
|
100000000000100000000000300000000100100000100000,
|
|
100000000000100000000000300000000100100000100000,
|
|
100000000000100000000000300000000100100000100000,
|
|
100000000000100000000000300000000100100000100000,
|
|
100000000000100000000000500000000000000008000000,
|
|
100000100100200000100000100100200000100000200000,
|
|
100000100100200000100000100100200000100000200000,
|
|
200000100100200000100100200000100100200000100100,
|
|
200100100100200100100100200100100100200100100100,
|
|
100000100200000100100000100200000200100000200200,
|
|
|
|
#GOGOSTART
|
|
100000100000200000000200100000100000200000100000,
|
|
000000100000200000100100100000100000200000100000,
|
|
100000100000200000000200100000100000200000100000,
|
|
400000000000400000000000100000200000200000200200,
|
|
100000100000200000000200100000100000200000100000,
|
|
000000100000200000100000000000100000200000200200,
|
|
100000100000200000000200100000100000200000000000,
|
|
100000100000200000200200100000200200100100100100,
|
|
500000000000000000000000000000000000000000000008,
|
|
000000100000200000000100100000100000200000100100,
|
|
100000100000200000700000000000000000000000800000,
|
|
000000100000200000000100100000100000200000100000,
|
|
500000000000000000000000000000000000000000000008,
|
|
000000100000200000000100100000100000200000100000,
|
|
700000000000000000000000000000000000800000000000,
|
|
100000200000100000200000100000200200100000200200,
|
|
100000100000200000200000000000100000100000100000,
|
|
200000200000000000100000100000100000200000200000,
|
|
500000000000000000000000000008000000200000000000,
|
|
300000000000300000000000400000000000400000000000,
|
|
100000100000200000200000100000100000100000100000,
|
|
200000200000100000100000100000100000200000200000,
|
|
100000100100200000100100200000100100200000100100,
|
|
100000100200100000200000100200100000200200200200,
|
|
|
|
#GOGOEND
|
|
000000000000000000000000000000000000000000000000,
|
|
700000000000000000000000000000000000000000000000,
|
|
000000000000000000000000000000000000000000000008,
|
|
|
|
|
|
#END
|
|
|
|
|
|
COURSE:Hard
|
|
LEVEL:5
|
|
BALLOON:6,7,36,6,7,24
|
|
SCOREINIT:520
|
|
SCOREDIFF:128
|
|
|
|
|
|
#START
|
|
|
|
|
|
100000000000000000100000100000000000000000000000,
|
|
100000000000000000000000100000000000000000000000,
|
|
100000000000000000100000100000000000000000000000,
|
|
200000000000200000000000200000000000000000000000,
|
|
100000000000000000100000100000000000000000000000,
|
|
100000000000000000000000100000000000000000000000,
|
|
100000000000000000100000100000000000000000000000,
|
|
200000000000200000000000200000000000200000000000,
|
|
#GOGOSTART
|
|
100000000000200000000000100000100000200000100000,
|
|
000000100000200000100000000000100100100000000000,
|
|
100000100000200000000000100000100000200000000000,
|
|
400000000000400000000000200000200000200000000000,
|
|
100000100000200000000000100000100000200000100000,
|
|
000000100000200000100000000000100100100000000000,
|
|
100000100000200000000000100000100000200000000000,
|
|
100000100000200000000000100000000000100100100000,
|
|
500000000000000000000000000000000000000000800000,
|
|
000000000000200000000000200000000000200000000000,
|
|
100000000000000000700000000000000000800000000000,
|
|
000000000000100000000000100000100000200000000000,
|
|
500000000000000000000000000000000000000000800000,
|
|
000000000000200000000000100000100000200000000000,
|
|
700000000000000000000000800000000000000000000000,
|
|
100000200000100000200000100000200000100000000000,
|
|
100000100000200000200000000000000000100000100000,
|
|
200000200000000000000000100000100000100000000000,
|
|
500000000000000000000000000000800000000000000000,
|
|
300000000000300000000000400000000000400000000000,
|
|
100000100000200000200000000000000000100000100000,
|
|
200000200000000000000000100000100000100000000000,
|
|
100000100100100000100100100000100100100000100100,
|
|
100000100100100000100000200200000000100000100000,
|
|
#GOGOEND
|
|
000000000000000000000000000000000000000000000000,
|
|
700000000000000000000000000000000000000000000000,
|
|
000000000000000000000000000000000000000000000000,
|
|
000000000000000000000000000000000000000000800000,
|
|
000000000000000000000000000000000000000000000000,
|
|
100000100000200000000000100000200000000000000000,
|
|
100000100000200000000000100000200000000000000000,
|
|
100000100000200000000000100000200000000000000000,
|
|
100000100000200000000000200200000000200200000000,
|
|
100000100000200000100000000000100000100000000000,
|
|
100000200000100000200000100000000000000000000000,
|
|
100000100000200000100000000000200000200000200000,
|
|
100000100000100000000000100100100000100000000000,
|
|
100000100000200000100000000000100100100000000000,
|
|
100000000000100000100000000000200000200000000000,
|
|
100000100000200000100000000000100100100000000000,
|
|
200000000000200000000000400000000000400000000000,
|
|
100000000000100000000000300000000000100000100000,
|
|
100000000000100000000000300000000000100000100000,
|
|
100000000000100000000000300000000000100000100000,
|
|
100000000000100000000000300000000000100000100000,
|
|
100000000000100000000000300000000000100000100000,
|
|
100000000000100000000000300000000000100000100000,
|
|
100000000000100000000000300000000000100000100000,
|
|
100000000000100000000000500000000000800000000000,
|
|
100000100000200000000000100000200000000000200000,
|
|
100000100000200000000000100000200000000000200000,
|
|
200000100000200000100000200000100000200000000000,
|
|
200000100100100000100100100000100100100000000000,
|
|
300000000400000000300000000400000000300000400000,
|
|
#GOGOSTART
|
|
300000000000200000000000100000100000200000100000,
|
|
000000100000200000100000000000100100100000000000,
|
|
100000100000200000000000100000100000200000000000,
|
|
400000000000400000000000200000200000200000000000,
|
|
100000100000200000000000100000100000200000100000,
|
|
000000100000200000100000000000100100100000000000,
|
|
100000100000200000000000100000100000200000000000,
|
|
100000100000200000000000100000000000100100100000,
|
|
500000000000000000000000000000000000000000800000,
|
|
000000000000200000000000200000000000200000000000,
|
|
100000000000000000700000000000000000800000000000,
|
|
000000000000100000000000100000100000200000000000,
|
|
500000000000000000000000000000000000000000800000,
|
|
000000000000200000000000100000100000200000000000,
|
|
700000000000000000000000800000000000000000000000,
|
|
100000200000100000200000100000200000100000000000,
|
|
100000100000200000200000000000000000100000100000,
|
|
200000200000000000000000100000100000100000000000,
|
|
500000000000000000000000000000800000000000000000,
|
|
300000000000300000000000400000000000400000000000,
|
|
100000100000200000200000000000000000100000100000,
|
|
200000200000000000000000100000100000100000000000,
|
|
100000100100100000100100100000100100100000100100,
|
|
100000100100100000100000200200000000100000100000,
|
|
#GOGOEND
|
|
000000000000000000000000000000000000000000000000,
|
|
700000000000000000000000000000000000000000000000,
|
|
000000000000000000000000000000000000000000800000,
|
|
|
|
|
|
#END
|
|
|
|
|
|
COURSE:Normal
|
|
LEVEL:5
|
|
BALLOON:4,6,18,27,4,6,18,18
|
|
SCOREINIT:680
|
|
SCOREDIFF:175
|
|
|
|
|
|
#START
|
|
|
|
|
|
100000000000000000000000100000000000000000000000,
|
|
100000000000000000000000000000000000000000000000,
|
|
100000000000000000000000100000000000000000000000,
|
|
200000000000000000000000000000000000000000000000,
|
|
100000000000000000000000100000000000000000000000,
|
|
100000000000000000000000000000000000000000000000,
|
|
100000000000000000000000100000000000000000000000,
|
|
200000000000200000000000200000000000000000000000,
|
|
#GOGOSTART
|
|
100000000000200000000000100000000000100000100000,
|
|
000000000000100000000000100000000000000000000000,
|
|
100000000000100000000000200000000000200000000000,
|
|
300000000000300000000000000000000000000000000000,
|
|
100000000000200000000000100000000000100000100000,
|
|
000000000000100000000000100000000000000000000000,
|
|
100000000000000000000000100000000000100000000000,
|
|
100000100000100000000000100000100000100000000000,
|
|
500000000000000000000000000000000000000000800000,
|
|
000000000000200000000000200000000000200000000000,
|
|
100000000000000000700000000000000000000000800000,
|
|
000000000000000000000000200000000000200000000000,
|
|
500000000000000000000000000000000000000000800000,
|
|
000000000000200000000000200000000000200000000000,
|
|
700000000000000000000000000000800000000000000000,
|
|
100000000000100000000000100000000000100000000000,
|
|
100000100000100000100000000000000000200000200000,
|
|
200000200000000000000000100000100000100000000000,
|
|
300000000000000000000000400000000000000000000000,
|
|
300000000000300000000000400000000000400000000000,
|
|
100000100000100000100000000000000000200000200000,
|
|
200000200000000000000000100000100000100000000000,
|
|
900000000000000000000000000000000000000000000000,
|
|
000000000000000000000000000000000000000000000008,
|
|
#GOGOEND
|
|
000000000000000000000000000000000000000000000000,
|
|
700000000000000000000000000000000000000000000000,
|
|
000000000000000000000000000000000000000000000000,
|
|
000000000000000000000000000000000000000000000008,
|
|
000000000000000000000000000000000000000000000000,
|
|
100000000000000000000000100000100000000000000000,
|
|
100000000000000000000000100000100000000000000000,
|
|
100000000000000000000000100000100000000000000000,
|
|
100000000000000000000000200000000000200000000000,
|
|
100000000000200000000000100000100000000000000000,
|
|
100000000000100000000000100000000000000000000000,
|
|
500000000000000000800000000000000000000000000000,
|
|
100000000000100000000000100000000000000000000000,
|
|
100000000000200000000000100000100000000000000000,
|
|
100000000000100000100000000000000000000000000000,
|
|
500000000000000000800000000000000000000000000000,
|
|
200000000000200000000000400000000000400000000000,
|
|
100000000000100000000000300000000000000000000000,
|
|
100000000000100000000000300000000000000000000000,
|
|
100000000000100000000000300000000000000000000000,
|
|
100000000000100000000000300000000000000000000000,
|
|
100000000000100000000000300000000000000000000000,
|
|
100000000000100000000000300000000000000000000000,
|
|
100000000000100000000000300000000000000000000000,
|
|
100000000000100000000000400000000000000000000000,
|
|
100000100000100000000000100000200000000000000000,
|
|
100000100000100000000000100000200000000000000000,
|
|
200000000000200000000000200000000000200000000000,
|
|
400000000000400000000000400000000000400000000000,
|
|
500000000000000000000000000000800000000000000000,
|
|
#GOGOSTART
|
|
100000000000200000000000100000000000100000100000,
|
|
000000000000100000000000100000000000000000000000,
|
|
100000000000100000000000200000000000200000000000,
|
|
300000000000300000000000000000000000000000000000,
|
|
100000000000200000000000100000000000100000100000,
|
|
000000000000100000000000100000000000000000000000,
|
|
100000000000000000000000100000000000100000000000,
|
|
100000100000100000000000100000100000100000000000,
|
|
500000000000000000000000000000000000000000800000,
|
|
000000000000200000000000200000000000200000000000,
|
|
100000000000000000700000000000000000000000800000,
|
|
000000000000000000000000200000000000200000000000,
|
|
500000000000000000000000000000000000000000800000,
|
|
000000000000200000000000200000000000200000000000,
|
|
700000000000000000000000000000800000000000000000,
|
|
100000000000100000000000100000000000100000000000,
|
|
100000100000100000100000000000000000200000200000,
|
|
200000200000000000000000100000100000100000000000,
|
|
300000000000000000000000400000000000000000000000,
|
|
300000000000300000000000400000000000400000000000,
|
|
100000100000100000100000000000000000200000200000,
|
|
200000200000000000000000100000100000100000000000,
|
|
900000000000000000000000000000000000000000000000,
|
|
000000000000000000000000000000000000000000000008,
|
|
#GOGOEND
|
|
000000000000000000000000000000000000000000000000,
|
|
700000000000000000000000000000000000000000000000,
|
|
000000000000000000000000000000000000000000000008,
|
|
|
|
|
|
#END
|
|
|
|
|
|
COURSE:Easy
|
|
LEVEL:3
|
|
BALLOON:12,18,12,12
|
|
SCOREINIT:540
|
|
SCOREDIFF:163
|
|
|
|
|
|
#START
|
|
|
|
|
|
100000000000000000000000100000000000000000000000,
|
|
100000000000000000000000000000000000000000000000,
|
|
100000000000000000000000100000000000000000000000,
|
|
100000000000000000000000000000000000000000000000,
|
|
100000000000000000000000100000000000000000000000,
|
|
100000000000000000000000000000000000000000000000,
|
|
100000000000000000000000100000000000000000000000,
|
|
100000000000000000000000000000000000000000000000,
|
|
#GOGOSTART
|
|
100000000000000000000000100000000000000000100000,
|
|
000000000000000000000000100000000000100000000000,
|
|
100000000000000000000000100000000000000000000000,
|
|
300000000000000000000000000000000000000000000000,
|
|
100000000000000000000000100000000000000000100000,
|
|
000000000000000000000000100000000000100000000000,
|
|
100000000000000000000000100000000000000000000000,
|
|
100000000000000000000000100000000000100000000000,
|
|
500000000000000000000000000000000000000000800000,
|
|
000000000000000000000000200000000000200000000000,
|
|
500000000000000000000000000000000000000000800000,
|
|
000000000000000000000000200000000000200000000000,
|
|
500000000000000000000000000000000000000000800000,
|
|
000000000000000000000000200000000000200000000000,
|
|
500000000000000000800000000000000000000000000000,
|
|
100000000000000000000000100000000000000000000000,
|
|
100000000000100000000000000000000000100000000000,
|
|
100000000000000000000000100000000000100000000000,
|
|
300000000000000000000000400000000000000000000000,
|
|
300000000000300000000000300000000000000000000000,
|
|
100000000000100000000000000000000000100000000000,
|
|
100000000000000000000000100000000000100000000000,
|
|
900000000000000000000000000000000000000000000000,
|
|
000000000000000000000000000000000000000000000008,
|
|
#GOGOEND
|
|
000000000000000000000000000000000000000000000000,
|
|
700000000000000000000000000000000000000000000000,
|
|
000000000000000000000000000000000000000000000000,
|
|
000000000000000000000000000000000000000000000008,
|
|
000000000000000000000000000000000000000000000000,
|
|
100000000000000000000000000000000000000000000000,
|
|
100000000000000000000000000000000000000000000000,
|
|
100000000000000000000000000000000000000000000000,
|
|
100000000000000000000000400000000000400000000000,
|
|
100000000000000000000000100000000000000000000000,
|
|
100000000000100000000000100000000000000000000000,
|
|
500000000000000000800000000000000000000000000000,
|
|
200000000000000000000000200000000000000000000000,
|
|
100000000000000000000000100000000000000000000000,
|
|
100000000000100000000000100000000000000000000000,
|
|
500000000000000000800000000000000000000000000000,
|
|
200000000000200000000000400000000000000000000000,
|
|
100000000000100000000000300000000000000000000000,
|
|
100000000000100000000000300000000000000000000000,
|
|
100000000000100000000000300000000000000000000000,
|
|
100000000000100000000000300000000000000000000000,
|
|
100000000000100000000000300000000000000000000000,
|
|
100000000000100000000000300000000000000000000000,
|
|
100000000000100000000000300000000000000000000000,
|
|
100000000000100000000000400000000000000000000000,
|
|
200000000000200000000000200000000000000000000000,
|
|
200000000000200000000000200000000000000000000000,
|
|
100000000000100000000000100000000000100000000000,
|
|
300000000000300000000000300000000000300000000000,
|
|
500000000000000000000000800000000000000000000000,
|
|
#GOGOSTART
|
|
100000000000000000000000100000000000000000100000,
|
|
000000000000000000000000100000000000100000000000,
|
|
100000000000000000000000100000000000000000000000,
|
|
300000000000000000000000000000000000000000000000,
|
|
100000000000000000000000100000000000000000100000,
|
|
000000000000000000000000100000000000100000000000,
|
|
100000000000000000000000100000000000000000000000,
|
|
100000000000000000000000100000000000100000000000,
|
|
500000000000000000000000000000000000000000800000,
|
|
000000000000000000000000200000000000200000000000,
|
|
500000000000000000000000000000000000000000800000,
|
|
000000000000000000000000200000000000200000000000,
|
|
500000000000000000000000000000000000000000800000,
|
|
000000000000000000000000200000000000200000000000,
|
|
500000000000000000800000000000000000000000000000,
|
|
100000000000100000000000100000000000100000000000,
|
|
100000000000100000000000000000000000100000000000,
|
|
100000000000000000000000100000000000100000000000,
|
|
300000000000000000000000400000000000000000000000,
|
|
300000000000300000000000300000000000000000000000,
|
|
100000000000100000000000000000000000100000000000,
|
|
100000000000000000000000100000000000100000000000,
|
|
900000000000000000000000000000000000000000000000,
|
|
000000000000000000000000000000000000000000000008,
|
|
#GOGOEND
|
|
000000000000000000000000000000000000000000000000,
|
|
700000000000000000000000000000000000000000000000,
|
|
000000000000000000000000000000000000000000000008,
|
|
|
|
|
|
#END
|
|
|