Files
ESE/07 Game Music/Flower Girl/Flower Girl.tja
T
2023-09-16 17:39:30 -05:00

324 lines
13 KiB
Plaintext
Raw Blame History

This file contains ambiguous Unicode characters
This file contains Unicode characters that might be confused with other characters. If you think that this is intentional, you can safely ignore this warning. Use the Escape button to reveal them.
//TJADB Project
TITLE:Flower Girl
TITLEJA:フラワーガール
SUBTITLE:--Yoshi feat. Yumi Hara/THE iDOLM@STER MUST SONGS: Red Album
BPM:124
WAVE:Flower Girl.ogg
OFFSET:-2.058
DEMOSTART:52.373
COURSE:Oni
LEVEL:8
SCOREINIT:520
SCOREDIFF:133
NOTESDESIGNER3:Kuboken
#START
000000000000000000000000000000000000000000000000,
000000000000000000000000000000000000000000000000,
000000000000500000000000000000000000000000000000,
000000000000000000000008000000000000000000000000,
000000000000000000000000000000000000000000000000,
200000000000200000000000200000000000300000100100,
100000100000100200200100000200100000200000200100,
100000100000100200200100000200200100200000200200,
100000100000100200200100000200100000200000200100,
100000200000200000200100100000100000200000200200,
100000100000200000200100000100200000100000200200,
100000100000200000200100000100200000100000200100,
100000100000200200000200100000100000200000200100,
200000100000200000100100000100100000100200200100,
100000100000200000200100000100200000100000200100,
100000100000200000200100000100200000100000500000,
000000000008000000200200100000200100000200100100,
200000100000200000100000200000000000200200100000,
100000000000200000200000000000200200200000200000,
000000200000200000000000200000000000100000100000,
100000000000200000200000000000200200200000200000,
000000200000200000000000100000100000200000200000,
100000000000200000100000000000100000200000100000,
000000100000200000100000200000000000000000000000,
300000000000300000000000300000400000400000400000,
000000300000300000000000100100000100200200100100,
#GOGOSTART
100000100000200000100100000100100000200000200100,
100000100000200200100100000100100000200000100100,
200000200000100200200100000100200000100000100200,
100000100000100200200100000100200000100000200100,
100000100000200200100100000100100000200000100200,
000100200000100200200100200000200000200000200100,
100000100000100200200100000100200000200000300000,
000000300000300000300000100200100200200200200100,
100000100000200200100100000100100000200000100100,
200000200000100200200100000100200000100000100200,
100000100000100200200100000100200000100000200200,
100200200100200200100100000100100000200200100200,
100000100000100200200100000100200000200000100200,
000200100000100200200100000100200000200000200100,
100000100000100200200100000100200000200000200100,
100000200000100000400000400000400000400000200200,
000000000000300000100100000100100000200000200100,
100000100000200200100100000100100000200000100100,
200000200000100200200100000100200000100000100200,
100000100000100200200100000100200000100000200100,
100000100000200200100100000100100000200000100200,
000100200000100200200100200000200000200000200100,
100000100000100200200100000100200000200000300000,
000000300000300000300000100200100200200200200100,
100000100000200200100100000100100000200000100100,
200000200000100200200100000100200000100000100200,
100000100000100200200100000100200000100000200200,
100200200100200200100100000100100000200200100200,
100000100000100200200100000100200000200000100200,
000200100000100200200100000100200000200000200100,
100000100000100200200100000100200000200000200100,
100100200000100100200000100200200000100200200000,
300000200000200200200200000200200000200000200200,
100000200000200200200200000200200000300000200200,
100000200000200200200200000200200000200200200200,
100200000100200000200100000100200100202020200000,
#GOGOEND
#END
COURSE:Hard
LEVEL:4
SCOREINIT:760
SCOREDIFF:228
#START
000000000000000000000000000000000000000000000000,
000000000000000000000000000000000000000000000000,
000000000000500000000000000000000000000000000000,
000000000000000000800000000000000000000000000000,
000000000000000000000000000000000000000000000000,
200000000000200000000000200000000000300000000000,
100000000000200000000100000000100000200000000000,
100000000000200000000100100000100000200000000000,
100000000000200000000100000000100000200000000000,
100000200000200000000000200000200000000000200000,
100000100000200000200000100000000000200000200000,
100000100000200000200000100000000000200000200000,
100000000000200000000200100000000000200000200100,
000000100000200000100000000000000000000000200000,
100000100000200000200000100000000000200000200000,
100000100000200000200000100000000000100000500000,
000000000800000000200000200000000200000000500000,
000000000800000000000000000000000000000000000000,
100000000000000000000000000000200000200000200000,
000000000000000000000000000000000000100000100000,
100000000000000000000000000000200000200000200000,
000000000000000000000000100000100000200000200000,
100000000000200000100000000000100000200000100000,
000000100000200000100000200000000000000000000000,
300000000000300000000000300000400000400000400000,
000000600000000000000000800000000000000000000000,
#GOGOSTART
100000000000100000100100000000000000200000100000,
100000000000100000000000100000000000200000000000,
200000000000200000000000000000000000100000100000,
000000000000000000000000000000000000100000000000,
100000000000000000200000200000100000100000100500,
000000000000800000000000100000200000200000000000,
100000000000200000200000100000100000200000300000,
000000300000300000300000300000000000300000000000,
000000000000100000100100000000200000200000100000,
100000000000100000000000100000000000200000000000,
200000000000200000000000000000000000000000500000,
000000000000000000000800000000000000100000000000,
000000000000200000200000100000100000200000500000,
000000000000000000000800000000000000100000100000,
000000000000400000000000400000000000300000000000,
300000000000300000400000400000400000400000000000,
000000000000300000100100000000000000200000100000,
100000000000100000000000100000000000200000000000,
200000000000200000000000000000000000100000100000,
000000000000000000000000000000000000100000000000,
100000000000000000200000200000100000100000100500,
000000000000800000000000100000200000200000000000,
100000000000200000200000100000100000200000300000,
000000300000300000300000300000000000300000000000,
000000000000100000100100000000200000200000100000,
100000000000100000000000100000000000200000000000,
200000000000200000000000000000000000000000500000,
000000000000000000000800000000000000100000000000,
000000000000200000200000100000100000200000500000,
000000000000000000000800000000000000100000100000,
000000000000400000000000400000000000300000000000,
300000000000300000000000400000000000400000000000,
300000000000200000000000000000000000200000000000,
000000000000200000000000000000000000300000000000,
000000000000200000000000000000000000200000000000,
000000000000200000000000000000000000200000400000,
#GOGOEND
#END
COURSE:Normal
LEVEL:4
SCOREINIT:780
SCOREDIFF:268
#START
000000000000000000000000000000000000000000000000,
000000000000000000000000000000000000000000000000,
000000000000500000000000000000000000000000000000,
000000000000000000800000000000000000000000000000,
000000000000000000000000000000000000000000000000,
200000000000200000000000200000000000300000000000,
000000000000100000000000000000000000100000000000,
000000000000100000000000000000000000100000000000,
000000000000100000000000000000000000100000000000,
000000100000100000000000100000100000000000000000,
100000000000100000000000100000000000100000100000,
100000000000100000000000100000000000000000000000,
100000000000200000000000100000000000200000000000,
100000000000100000100000000000000000000000000000,
100000000000100000000000100000000000100000100000,
100000000000100000000000100000000000100000500000,
000000000800000000000000100000000100000000500000,
000000800000000000000000000000000000000000000000,
100000000000000000000000000000200000200000200000,
000000000000000000000000000000000000100000100000,
100000000000000000000000000000200000200000200000,
000000000000000000000000100000100000100000000000,
100000000000100000100000000000100000000000100000,
000000000000100000100000100000000000000000000000,
300000000000300000000000300000300000300000300000,
000000600000000000000000800000000000000000000000,
#GOGOSTART
100000000000100000000000100000000000100000100000,
100000000000100000000000100000000000200000000000,
200000000000200000000000000000000000100000100000,
000000000000000000000000000000000000100000000000,
100000000000000000100000100000000000100000500000,
000000000000000000800000000000000000000000000000,
100000000000100000000000100000000000000000300000,
000000300000300000300000300000000000300000000000,
000000000000100000000000100000000000100000100000,
100000000000100000000000100000000000200000000000,
200000000000200000000000000000000000000000500000,
000000000000000000800000000000000000100000000000,
000000000000100000000000100000000000100000500000,
000000000000000000800000000000000000100000100000,
000000000000400000000000400000000000300000000000,
300000000000300000400000400000400000400000000000,
000000000000300000000000000000000000100000100000,
100000000000100000000000100000000000200000000000,
200000000000200000000000000000000000100000100000,
000000000000000000000000000000000000100000000000,
100000000000000000000000100000000000100000500000,
000000000000000000800000000000000000000000000000,
100000000000100000000000100000000000000000300000,
000000300000300000300000300000000000300000000000,
000000000000100000000000100000000000100000100000,
100000000000100000000000100000000000200000000000,
200000000000200000000000000000000000000000500000,
000000000000000000800000000000000000100000000000,
000000000000100000000000100000000000100000500000,
000000000000000000800000000000000000100000100000,
000000000000400000000000400000000000300000000000,
300000000000300000000000400000000000400000000000,
400000000000000000000000000000000000000000000000,
000000000000000000000000000000000000300000000000,
000000000000000000000000000000000000000000000000,
000000000000000000000000000000000000000000400000,
#GOGOEND
#END
COURSE:Easy
LEVEL:3
SCOREINIT:840
SCOREDIFF:503
#START
000000000000000000000000000000000000000000000000,
000000000000000000000000000000000000000000000000,
000000000000500000000000000000000000000000000000,
000000000000000000800000000000000000000000000000,
000000000000000000000000000000000000000000000000,
000000000000000000000000000000000000300000000000,
000000000000000000000000000000000000200000000000,
000000000000000000000000000000000000200000000000,
000000000000000000000000000000000000200000000000,
000000000000000000000000000000000000000000000000,
100000000000000000000000100000000000000000000000,
100000000000100000000000100000000000000000000000,
100000000000000000000000100000000000000000000000,
100000000000100000000000000000000000000000000000,
100000000000000000000000100000000000000000000000,
100000000000100000000000100000000000000000500000,
000000800000000000000000000000000000000000500000,
000000800000000000000000000000000000000000000000,
100000000000000000000000000000000000000000100000,
000000000000000000000000000000000000000000000000,
100000000000000000000000000000000000000000100000,
000000000000000000000000000000000000000000000000,
100000000000100000000000100000000000000000100000,
000000000000100000000000100000000000000000000000,
300000000000300000000000300000000000300000000000,
000000600000000000000000800000000000000000000000,
#GOGOSTART
100000000000100000000000000000000000100000000000,
100000000000000000000000100000000000100000000000,
100000000000100000000000000000000000000000100000,
000000000000000000000000000000000000000000000000,
100000000000000000000000100000000000000000500000,
000000000000000000800000000000000000000000000000,
100000000000100000000000100000000000000000600000,
000000000000000000000000000000800000000000000000,
000000000000100000000000100000000000000000000000,
100000000000000000000000100000000000100000000000,
100000000000100000000000000000000000000000500000,
000000000000000000800000000000000000100000000000,
000000000000100000000000100000000000000000500000,
000000000000000000800000000000000000000000000000,
000000000000400000000000400000000000300000000000,
300000000000300000000000400000000000400000000000,
000000000000300000000000000000000000100000000000,
100000000000000000000000100000000000100000000000,
100000000000100000000000000000000000000000100000,
000000000000000000000000000000000000000000000000,
100000000000000000000000100000000000000000500000,
000000000000000000800000000000000000000000000000,
100000000000100000000000100000000000000000600000,
000000000000000000000000000000800000000000000000,
000000000000100000000000100000000000000000000000,
100000000000000000000000100000000000100000000000,
100000000000100000000000000000000000000000500000,
000000000000000000800000000000000000100000000000,
000000000000100000000000100000000000000000500000,
000000000000000000800000000000000000000000000000,
000000000000400000000000400000000000300000000000,
300000000000300000000000400000000000400000000000,
400000000000000000000000000000000000000000000000,
000000000000000000000000000000000000300000000000,
000000000000000000000000000000000000000000000000,
000000000000000000000000000000000000000000400000,
#GOGOEND
#END