Files
ESE/07 Game Music/Geki! Teikoku Kageki-dan/Geki! Teikoku Kageki-dan.tja
T
2023-06-15 19:05:10 -05:00

280 lines
11 KiB
Plaintext

//TJADB Project
TITLE:Geki! Teikoku Kageki-dan
TITLEJA:檄!帝国華撃団
SUBTITLE:--Chisa Yokoyama/Sakura Taisen
SUBTITLEJA:「サクラ大戦」より
BPM:142.857
WAVE:Geki! Teikoku Kageki-dan.ogg
OFFSET:-1.880
DEMOSTART:49.733
COURSE:Oni
LEVEL:7
BALLOON:6,26
SCOREINIT:650
SCOREDIFF:170
#START
300000000300000000300000000300000000300000000300,
000000000000200200200000100100100000200200200000,
300000000300000000000000000000200000100000100000,
100000000000200000000000200000000000300000000000,
100000000100200000200000100000100100200000200000,
100000100000200000100000100000200200200200200000,
100000000100200000200000100000100100200000200000,
100000100000200200200000100000000000200000000000,
300000300000300000000000200200100100200000100000,
300000300000300000000000100100200200100000200000,
100000000100200000200000100000100000200000000000,
100000100100100000100100700000000000000000800000,
100000000100200000100000100000200200200000000000,
100000100000200000100000100000200200200000000000,
100000000100200000200000100000100000200000100000,
100000000000200000100000100000100000200000000000,
100000100000200000100000100000100000200000200000,
100000000000200000100100100000000000200000100100,
100000100000200000200000100000100000200000000000,
100000000000200000100000200200200200100100100000,
100000000100200000100000100000200200200000200000,
100000100000200000100000100000200200200000200000,
100000000100200000200000100000100100200000200000,
100000200200100000200000100000100200200000200000,
100000100000200000100000100000100000200000200000,
100000000000200000100100100000100000200000100000,
100000100000200000200000100000100000200000000000,
100100100000100100100000200200200200100100100000,
200200200000200200200000300000000000300000000000,
#GOGOSTART
100100100000200000000000100000100000200000100000,
100100200000200200100000100000100000200000000000,
100000000100200000100000100100200200100000200000,
100000200200200200200000300000000000300000000000,
100100100000200000000000100000100000200000100000,
100000100000200000100000100100100000200200200000,
100000000100200000100000100000200200100000200000,
100000100000200200200000300000000000300000000000,
100100100000200000000000100000100000200000100000,
100100200000200200100000100000100000200000000000,
100000000100200000100000100100200200100000200000,
100000200200200200200000300000000000300000000000,
100100100000200000000000100000100000200000100000,
100000100000200000100000100100100000200200200000,
100000000100200000200000300000000000300000000000,
700000000000000000000000000000000000000000000000,
000000000000000000000000800000000000000000000000,
300000000300000000300000000300000000300000000300,
000000000000200200200000100100100000200200200000,
300000000300000000000000200000100000100000200000,
400000300000000000300000400000000000400000300000,
#GOGOEND
#END
COURSE:Hard
LEVEL:5
BALLOON:5,12
#START
300000000300000000300000000300000000300000000600,
000000000000000000000000000008000000000000000000,
100000000100000000000000000000200000100000100000,
100000000000200000000000200000000000300000000000,
100000000000100000200000100000000000100000200000,
100000100000200000100000100000000000200000000000,
100000000000100000200000100000000000100000200000,
100000100000200000100000100000000000200000000000,
300000300000300000000000200000000000200000000000,
300000300000300000000000200000000000200000000000,
100000100000200000000000100000100000200000000000,
100000100100100000100100700000000000000000800000,
100000000100100000100000100000000000200000000000,
100000100000200000100000100000000000200000000000,
100000000100100000100000100000000000200000100000,
100000000000200000100000100000100000200000000000,
100000000000200000100000100000100000200000200000,
100000000000200000100000100000000000200000100100,
100000100000200000100000100000100000200000000000,
100000000000100000100000100100100000100000100000,
100000000100100000100000100000000000200000000000,
100000100000200000100000100000000000200000000000,
100000000100100000100000100000000000200000100000,
100000000000200000100000100000000100100000200000,
100000000000200000100000100000100000200000200000,
100000000000200000100000100000000000200000100000,
100000100000200000100000100000100000200000000000,
600000000000000000000000000000000000000000000008,
000000000000000000000000300000000000300000000000,
#GOGOSTART
300000000000200000000000100000100000200000100000,
100000000000200200200000100000000000100000000000,
100000000000200000100000100000100000200000100000,
100000000000200200200000300000000000300000000000,
300000000000200000000000100000100000200000100000,
500000000000000008000000200000000000100000100000,
100000000000200000100000100000100100100000100000,
100000000000200200200000300000000000300000000000,
300000000000200000000000100000100000200000100000,
100000000000200200200000100000000000100000000000,
100000000000200000100000100000100000200000100000,
100000000000200200200000300000000000300000000000,
300000000000200000000000100000100000200000100000,
500000000000000008000000200000000000100000100000,
100000000000200000100000300000000000300000000000,
700000000000000000000000000000000000000000000000,
000000000000000000000000800000000000000000000000,
300000000300000000300000000300000000300000000600,
000000000000000000000000000008000000000000000000,
300000000300000000000000200000000000100000000000,
400000300000000000300000400000000000400000300000,
#GOGOEND
#END
COURSE:Normal
LEVEL:3
BALLOON:7,9
#START
600000000000000000000000000000000000000000000000,
000000000000000000000000000000000008000000000000,
100000000000000000000000000000000000000000000000,
200000000000200000000000200000000000300000000000,
100000000000100000000000100000000000200000000000,
100000000000100000100000100000000000000000000000,
100000000000100000000000200000000000200000000000,
100000000000100000100000100000000000000000000000,
300000300000300000000000000000000000000000000000,
400000400000400000000000000000000000000000000000,
100000000000200000000000100000100000100000000000,
700000000000000000000000000000800000000000000000,
100000000000100000000000100000000000000000000000,
100000000000100000100000100000000000000000000000,
100000000000100000000000200000000000200000000000,
100000000000000000000000200000000000000000000000,
100000000000100000000000100000100000100000000000,
100000000000000000000000100000000000000000000000,
100000000000100000000000100000100000100000000000,
500000000000000000000008000000000000000000000000,
100000000000100000000000100000000000000000000000,
100000000000100000100000100000000000000000000000,
100000000000100000000000200000000000200000000000,
100000000000000000000000200000000000000000000000,
100000000000100000000000100000100000100000000000,
100000000000000000000000100000000000000000000000,
100000000000100000000000100000100000100000000000,
600000000000000000000000000000000000000000000008,
000000000000000000000000300000000000300000000000,
#GOGOSTART
300000000000000000000000100000000000100000100000,
100000000000000000000000100000000000100000000000,
100000000000000000100000100000000000100000000000,
100000000000000000000000300000000000300000000000,
300000000000000000000000100000000000100000100000,
100000000000000000000000200000000000100000000000,
100000000000000000100000100000000000100000000000,
100000000000000000000000300000000000300000000000,
300000000000000000000000100000000000100000100000,
100000000000000000000000100000000000100000000000,
100000000000000000100000100000000000100000000000,
100000000000000000000000300000000000300000000000,
300000000000000000000000100000000000100000100000,
100000000000000000000000200000000000100000000000,
100000000000000000000000300000000000300000000000,
700000000000000000000000000000000000000000000000,
000000000000000000000000000008000000000000000000,
600000000000000000000000000000000000000000000000,
000000000000000000000000000000000008000000000000,
100000000000000000000000200000000000000000000000,
300000300000000000300000300000000000300000300000,
#GOGOEND
#END
COURSE:Easy
LEVEL:2
BALLOON:5,7
#START
600000000000000000000000000000000000000000000000,
000000000000000000000000000000000008000000000000,
100000000000000000000000000000000000000000000000,
200000000000000000000000200000000000000000000000,
100000000000000000000000100000000000000000000000,
100000000000100000000000100000000000000000000000,
100000000000000000000000100000000000000000000000,
100000000000100000000000100000000000000000000000,
300000000000300000000000000000000000000000000000,
400000000000400000000000000000000000000000000000,
100000000000000000000000100000000000000000000000,
700000000000000000000000000000008000000000000000,
100000000000000000000000000000000000000000000000,
100000000000000000000000000000000000000000000000,
100000000000000000000000100000000000000000000000,
100000000000000000000000000000000000000000000000,
100000000000000000000000100000000000000000000000,
100000000000000000000000000000000000000000000000,
100000000000000000000000100000000000100000000000,
500000000000000000000008000000000000000000000000,
100000000000000000000000000000000000000000000000,
100000000000000000000000000000000000000000000000,
100000000000000000000000100000000000000000000000,
100000000000000000000000000000000000000000000000,
100000000000000000000000100000000000000000000000,
100000000000000000000000000000000000000000000000,
100000000000000000000000100000000000100000000000,
600000000000000000000000000000000000000000000008,
000000000000000000000000300000000000300000000000,
#GOGOSTART
300000000000000000000000100000000000000000000000,
100000000000000000000000100000000000100000000000,
100000000000000000000000100000000000100000000000,
100000000000000000000000300000000000300000000000,
300000000000000000000000200000000000000000000000,
200000000000000000000000000000000000100000000000,
100000000000000000000000100000000000100000000000,
100000000000000000000000300000000000300000000000,
300000000000000000000000100000000000000000000000,
100000000000000000000000100000000000100000000000,
100000000000000000000000100000000000100000000000,
100000000000000000000000300000000000300000000000,
300000000000000000000000200000000000000000000000,
200000000000000000000000000000000000100000000000,
100000000000000000000000300000000000300000000000,
700000000000000000000000000000000000000000000000,
000000000000000000000000800000000000000000000000,
600000000000000000000000000000000000000000000000,
000000000000000000000000000008000000000000000000,
100000000000000000000000000000000000000000000000,
300000000000000000300000000000000000300000000000,
#GOGOEND
#END