Files
ESE/07 Game Music/Hashi!/Hashi!.tja
T
2023-06-15 19:15:39 -05:00

333 lines
12 KiB
Plaintext

//TJADB Project
TITLE:Hashi!
TITLEJA:影の伝説
SUBTITLE:--Hisayoshi Ogura/Kage no Densetsu
SUBTITLEJA:タイトー「影の伝説」より
BPM:151.04
WAVE:Hashi!.ogg
OFFSET:-7.881
DEMOSTART:9.475
COURSE:Oni
LEVEL:7
SCOREINIT:690
SCOREDIFF:110
#START
500000000000000000000000000000000000000008000000,
100000100100100000100100100000100100100000100100,
100000100100100000100100100000200000100000100100,
100100100000200000100100100000200000100100100000,
300000000000000000400000100100100100100100100100,
100000200000100100100000100000200000100100100000,
100000200000100100100000100000200000100000100100,
100100100000200000100100100000200000100100100000,
100000100000200000200000100100100100100000100000,
100000100100100000100100100000100100100000100100,
100000100100100000100100100000200000100000100100,
100100100000200000100100100000200000100100100000,
300000000000000000400000100100100100100100100100,
100000200000100100100000100000200000100100100000,
100000200000100100100000100000200000100000100100,
100100100000200000100100100000200000100100100000,
100100200000200000100100200000200000200200200000,
100000000000000000100000200000000000200200200000,
100000000000100000100000000000000000100100100000,
100000000000000000100000200000000000200200200000,
100000000000100000100000100100100000200200200000,
100000000000000000100000200000000000200200200000,
100100200000200000100100200000200000200200200000,
100100200200100000200000100100200200100000200000,
100100200200100100200000000000000000000000000000,
100100200200100000200000100100200200100000200000,
100100200200100100200000000000000000000000000000,
100000000000000000100000200000000000200200200000,
100000000000100000100000000000000000100100100000,
100000000000000000100000200000000000200200200000,
100000000000100000100000100100100000200200200000,
100000000000000000100000200000000000200200200000,
100100200000200000100100200000200000200200200000,
100100200200100000200000100100200200100000200000,
100100200200100100200000000000000000000000000000,
100100200200100000200000100100200200100000200000,
100100200200100100200000000000000000000000000000,
#GOGOSTART
100000100100200000100100100000100100200000100100,
100000100100200000100100100000200000100000100100,
100100100000200000100100100000200000100100100000,
300000000000000000400000100100100100100100100100,
100000200000100100100000100000200000100100100000,
100000200000100100100000100000200000100000100100,
100100100000200000100100100000200000100100100000,
100000100000200000200000100100100100100000100000,
100000100100200000100100100000100100200000100100,
100000100100200000100100100000200000100000100100,
100100100000200000100100100000200000100100100000,
300000000000000000400000100100100100100100100100,
100000200000100100100000100000200000100100100000,
100000200000100100100000100000200000100000100100,
100100100000200000100100100000200000100100100000,
100100200000200000100100200000200000100100100000,
#GOGOEND
100100200200200000200000200200100100100000100000,
100100200200200000200000200200100100100000100000,
#MEASURE 3/4
#BPMCHANGE 151.69
11222020
#BPMCHANGE 153.23
#SCROLL 0.98
21
#BPMCHANGE 100.62
#SCROLL 1.51
11,
#BPMCHANGE 128.68
#SCROLL 1.17
1
#BPMCHANGE 114.08
#SCROLL 1.32
2
#BPMCHANGE 113.11
#SCROLL 1.33
1020,
#MEASURE 9/8
#BPMCHANGE 113.11
00
#BPMCHANGE 150.45
#SCROLL 1
2222222000000000,
#END
COURSE:Hard
LEVEL:7
SCOREINIT:620
SCOREDIFF:170
#START
500000000000000000000000000000000000000008000000,
100000100100100000100000100000100100100000100000,
100000100100100000100000100000100100100000100000,
100000000000100000000000000000200000100000100000,
300000000000000000400000000000000000000000000000,
100000100100100000100000100000100100100000100000,
100000100100100000100000100000100100100000100000,
100000000000100000000000000000200000100000000000,
100000100000200000200000100000200000100000200000,
100000100100100000100000100000100100100000100000,
100000100100100000100000100000100100100000100000,
100000000000100000000000000000200000100000100000,
300000000000000000400000000000000000000000000000,
100000100100100000100000100000100100100000100000,
100000100100100000100000100000100100100000100000,
100000000000100000000000000000200000100000000000,
100100100000200000100100100000200000100000100000,
100000000000000000100000200000000000100000000000,
100000000000100000100000000000000000200000000000,
100000000000000000100000200000000000100000000000,
100000000000100000100000000000200000200000000000,
100000000000000000100000100000000000200000000000,
100100100000200000100100100000200000100000000000,
100000100000200000200000100000100000200000100000,
100000100000200000200000000000000000000000000000,
100000100000200000200000100000100000200000100000,
100000100000200000200000000000000000000000000000,
100000000000000000100000200000000000100000000000,
100000000000100000100000000000000000200000000000,
100000000000000000100000200000000000100000000000,
100000000000100000100000000000200000200000000000,
100000000000000000100000100000000000200000000000,
100100100000200000100100100000200000100000000000,
100000100000200000200000100000100000200000100000,
100000100000200000200000000000000000000000000000,
100000100000200000200000100000100000200000100000,
100000100000200000200000000000000000000000000000,
#GOGOSTART
100000100100100000100000100000100100100000100000,
100000100100100000100000100000100100100000100000,
100000000000100000000000000000200000100000100000,
300000000000000000400000000000000000000000000000,
100000100100100000100000100000100100100000100000,
100000100100100000100000100000100100100000100000,
100000000000100000000000000000000000000000000000,
100000100000200000200000100000200000100000200000,
100000100100100000100000100000100100100000100000,
100000100100100000100000100000100100100000100000,
100000000000100000000000000000200000100000100000,
300000000000000000400000000000000000000000000000,
100000100100100000100000100000100100100000100000,
100000100100100000100000100000100100100000100000,
100000000000100000000000000000200000100000100000,
100100100000200000100100100000200000100000100000,
#GOGOEND
100100100100100000000000200200200200200000000000,
100100100100100000200000200200200200200000100000,
#MEASURE 3/4
#BPMCHANGE 151.69
100100100100100000000000000000000000,
#END
COURSE:Normal
LEVEL:4
SCOREINIT:860
SCOREDIFF:360
#START
500000000000000000000000000000000000800000000000,
100000000000200000000000100000100000000000000000,
100000000000000000000000200000200000000000000000,
100000000000000000000000000000000000000000000000,
300000000000000000400000000000000000000000000000,
100000000000200000000000100000100000000000000000,
100000000000000000000000200000200000000000000000,
100000000000000000000000000000000000000000000000,
100000000000000000000000000000000000000000000000,
100000000000200000000000100000100000000000000000,
100000000000000000000000200000200000000000000000,
100000000000000000000000000000000000000000000000,
300000000000000000400000000000000000000000000000,
100000000000200000000000100000100000000000000000,
100000000000000000000000200000200000000000000000,
100000000000000000000000000000000000000000000000,
500000000000000000000000000000800000000000000000,
100000000000000000100000200000000000000000000000,
100000000000100000100000000000000000000000000000,
100000000000000000100000200000000000000000000000,
100000000000100000100000000000200000200000000000,
100000000000000000100000200000000000000000000000,
100000000000200000200000000000000000000000000000,
100000000000200000000000100000000000200000000000,
100000000000200000200000000000000000000000000000,
100000000000200000000000100000000000200000000000,
100000000000200000200000000000000000000000000000,
100000000000000000100000200000000000000000000000,
100000000000100000100000000000000000000000000000,
100000000000000000100000200000000000000000000000,
100000000000100000100000000000200000200000000000,
100000000000000000100000100000000000000000000000,
100000000000200000200000000000000000000000000000,
100000000000200000000000100000000000200000000000,
100000000000200000200000000000000000000000000000,
100000000000200000000000100000000000200000000000,
500000000000000000000000000000800000000000000000,
#GOGOSTART
100000000000200000000000100000100000000000000000,
100000000000000000000000200000200000000000000000,
100000000000000000000000000000000000000000000000,
300000000000000000400000000000000000000000000000,
100000000000200000000000100000100000000000000000,
100000000000000000000000200000200000000000000000,
100000000000000000000000000000000000000000000000,
100000000000000000000000000000000000000000000000,
100000000000200000000000100000100000000000000000,
100000000000000000000000200000200000000000000000,
100000000000000000000000000000000000000000000000,
300000000000000000400000000000000000000000000000,
100000000000200000000000100000100000000000000000,
100000000000000000000000200000200000000000000000,
100000000000000000000000000000000000000000000000,
500000000000000000000000000000800000000000000000,
#GOGOEND
100000000000200000000000200000000000100000000000,
100000000000200000000000200000000000100000000000,
#MEASURE 3/4
100000000000200000000000000000
#BPMCHANGE 113.25
000000,
#END
COURSE:Easy
LEVEL:4
SCOREINIT:500
SCOREDIFF:260
#START
500000000000000000000000000000000000800000000000,
100000000000000000000000100000000000200000000000,
100000000000000000000000100000000000200000000000,
100000000000000000000000000000000000000000000000,
300000000000000000400000000000000000000000000000,
100000100000100000000000000000000000000000000000,
100000100000100000000000000000000000000000000000,
100000000000100000000000000000000000000000000000,
100000000000100000000000100000000000100000000000,
100000000000000000000000100000000000200000000000,
100000000000000000000000100000000000200000000000,
100000000000000000000000000000000000000000000000,
300000000000000000400000000000000000000000000000,
100000100000100000000000000000000000000000000000,
100000100000100000000000000000000000000000000000,
100000000000100000000000000000000000000000000000,
500000000000000000000000000000800000000000000000,
100000000000000000100000100000000000000000000000,
200000000000200000200000000000000000000000000000,
100000000000000000100000100000000000000000000000,
200000000000200000200000000000000000000000000000,
100000000000000000100000100000000000000000000000,
200000000000200000200000000000000000000000000000,
100000000000100000000000100000000000100000000000,
200000000000200000000000000000000000000000000000,
100000000000100000000000100000000000100000000000,
200000000000200000000000000000000000000000000000,
100000000000000000100000100000000000000000000000,
200000000000200000200000000000000000000000000000,
100000000000000000100000100000000000000000000000,
200000000000200000200000000000000000000000000000,
100000000000000000100000100000000000000000000000,
200000000000200000200000000000000000000000000000,
100000000000100000000000100000000000100000000000,
200000000000200000000000000000000000000000000000,
100000000000100000000000100000000000100000000000,
500000000000000000000000000000800000000000000000,
#GOGOSTART
100000000000000000000000100000000000200000000000,
100000000000000000000000100000000000200000000000,
100000000000000000000000000000000000000000000000,
300000000000000000400000000000000000000000000000,
100000100000100000000000000000000000000000000000,
100000100000100000000000000000000000000000000000,
100000000000100000000000000000000000000000000000,
100000000000100000000000100000000000100000000000,
100000000000000000000000100000000000200000000000,
100000000000000000000000100000000000200000000000,
100000000000000000000000000000000000000000000000,
300000000000000000400000000000000000000000000000,
100000100000100000000000000000000000000000000000,
100000100000100000000000000000000000000000000000,
100000000000100000000000000000000000000000000000,
500000000000000000000000000000800000000000000000,
#GOGOEND
100000000000000000000000100000000000100000000000,
100000000000000000000000200000000000200000000000,
#MEASURE 3/4
10000
#BPMCHANGE 113.25
0,
#END