Files
ESE/07 Game Music/IMMACULATE PLEDGE/IMMACULATE PLEDGE.tja
T
2023-01-17 00:45:18 -05:00

378 lines
14 KiB
Plaintext

//TJADB Project
TITLE:IMMACULATE PLEDGE
TITLEJA:ソウルキャリバーIV
SUBTITLE:--Junichi Nakatsuru/SOUL CALIBUR Ⅳ
SUBTITLEJA:IMMACULATE PLEDGE
BPM:150
WAVE:IMMACULATE PLEDGE.ogg
OFFSET:-1.862
DEMOSTART:69.062
COURSE:Oni
LEVEL:8
BALLOON:30
SCOREINIT:740
SCOREDIFF:170
#START
100000100000100000200000000000100000100000400000,
000000000000000000000000000000000000000000000000,
100000100000200000200000000000100000200000400000,
000000000000000000000000000000000000000000000000,
400000000000000000200200100000000000100100200000,
#BPMCHANGE 150.75
000000000000000000000000000000000000000000000000,
#BPMCHANGE 150.28
100000000000100000200000100100100100100000200000,
#BPMCHANGE 148.79
100100100000200000100100100000200000100000100100,
#BPMCHANGE 150.78
100000000000100000200000100100100100100000200000,
100100100000200000100100100000200000000000100100,
#BPMCHANGE 149.18
100000000000100000200000100100100100100000200000,
100100100000200000100100100000200000000000100100,
#BPMCHANGE 150.08
200000000000100000000000100000000000200000000000,
100000000000100000000000200000200000100100100100,
#BPMCHANGE 150.38
200000000000100000200000100100100100100000200000,
100100100000200000100100100000200000100000100100,
#BPMCHANGE 150.18
200000000000100000200000100100100100100000200000,
100100100000200000100100100000200000000000100100,
#BPMCHANGE 150.78
200000000000100000200000100000100000100100100100,
#BPMCHANGE 148.3
200000000000100000000000300000003000000030000000,
#BPMCHANGE 150
400000000000000000000000000000000000000000000000,
000000000000200000200000100000100000200000200000,
100000000000100000100000200000000000000000000000,
000000000000200000000000100000100000200000100000,
100000100000200000000000000000000000200000200000,
100000100000200000000000100000100000200000000000,
100000000000200000200000100000000000200000000000,
100000000000200000000000100000200000000000200000,
100000000000200000000000200000000000100000200000,
100000000000200000000000200000000000100000100000,
#BPMCHANGE 150.81
100000000000200000000000200000000000100000200000,
100000200000100000200000100000200000100100100100,
#BPMCHANGE 149.18
200000000000100000200000000000100000100000200000,
#BPMCHANGE 150
300000003000000030000000400000000000400000000000,
#GOGOSTART
100000200000100000200200000200200000100100100200,
100000200000100000200200000200200000100100100100,
200000200000100000200200000200200000100100100200,
100000200000100000200200000200200000100100100100,
200000000000100000200000000000200000000000000000,
100000000000200000200000000000200000000000000000,
100000000000100000200000000000200000100000200000,
300000003000000030000000400000000000400000100100,
200000200000100000200100000100200000100100100200,
100000200000100000200100000200100000100100100100,
200000200000100000200100000100200000100000500000,
000000000000000000000000000008000000000000000000,
200000200000100000200100000100200000100100100200,
100000200000100000200100000200100000100100100100,
200000200000100000200100000100200000100100100200,
100000000000100000200000000000200000000000200000,
700000000000000000000000000000000000000000000000,
000000000000000000000000000000800000000000200200,
#GOGOEND
100000000000000000200000000000000000200000000000,
300000000000000000200000000000000000200000100100,
200000000000100000000000100000001000000020000000,
#BPMCHANGE 150.2
500000000000000000000000000000000008000000200200,
100000000000300000000000300000000000400000000000,
#BPMCHANGE 150
400000000000000000100100200000000000000000000000,
100000100000100000200000000000100000100000400000,
000000200000100100100000200000200000100100100100,
200000100000200000200000000000100000200000500000,
#BPMCHANGE 148.89
000000000000000000000000008000000000000000000000,
#BPMCHANGE 151.59
400000000000000000200200100000000000100100200000,
#BPMCHANGE 152.82
000000000000000000000000000000000000000000000000,
300000000000000000000000000000000000000000000000,
#END
COURSE:Hard
LEVEL:5
BALLOON:20
SCOREINIT:780
SCOREDIFF:190
#START
100000100000100000200000000000100000100000200000,
000000000000000000000000000000000000000000000000,
100000100000200000200000000000100000200000200000,
000000000000000000000000000000000000000000000000,
400000000000000000000000000000000000000000000000,
000000000000000000000000000000000000000000000000,
100000000000200000000000100000000000100000200000,
000000100000200000000000100000200000100000000000,
100000000000200000000000100000000000100000200000,
000000100000200000000000100000200000000000100100,
100000000000200000000000100000000000100000200000,
000000100000200000000000100000200000100000000000,
200000000000100000000000100000000000200000000000,
100000000000100000000000200000000000000000000000,
100000000000200000000000100000000000100000200000,
000000100000200000000000100000200000100000000000,
100000000000200000000000100000000000100000200000,
000000100000200000000000100000200000000000100100,
100000000000200000000000500000000000000800000000,
200000000000100000000000300000003000000030000000,
400000000000000000000000000000000000000000000000,
000000000000200000000000100000100000200000200000,
100000000000100000100000200000000000000000000000,
000000000000200000000000100000000000200000000000,
100000100000200000000000000000000000200000200000,
100000000000200000000000100000100000200000000000,
100000000000200000200000100000000000200000000000,
100000000000200000000000100000200000000000200000,
100000000000200000000000200000000000100000000000,
100000000000200000000000200000000000100000200000,
100000000000200000000000200000000000100000000000,
100000000000200000000000100000000000100000100000,
200000000000100000200000000000100000100000100000,
300000003000000030000000400000000000400000000000,
#GOGOSTART
100000000000100000200000000000200000100000200000,
100000000000100000200000000000100000200000200000,
100000000000100000200000000000200000100000200000,
100000000000100000200000000000100000200000200000,
100000000000100000200000000000200000000000000000,
100000000000200000200000000000200000000000000000,
100000000000100000200000000000200000000000000000,
300000003000000030000000400000000000400000000000,
100000000000100000200000000000200000100000200000,
100000000000100000200000000000100000200000200000,
100000000000100000200000000000200000100000500000,
000000000000000000000800000000000000000000000000,
100000000000100000200000000000200000100000200000,
100000000000100000200000000000100000200000200000,
100000000000100000200000000000200000100000200000,
100000000000100000200000000000200000000000200000,
700000000000000000000000000000000000000000000000,
000000000000000000000000000800000000000000000000,
#GOGOEND
300000000000000000000000000000000000000000000000,
300000000000000000000000000000000000000000000000,
400000000000100000000000100000001000000020000000,
500000000000000000000000000000000800000000200200,
200000000000300000000000300000000000400000000000,
400000000000000000000000100100100000000000000000,
100000100000100000200000000000100000100000200000,
000000000000100100100000100000100000200000000000,
100000100000200000200000000000100000200000500000,
000000000000000000000000000000000800000000000000,
400000000000000000200200200000000000100100100000,
000000000000000000000000000000000000000000000000,
300000000000000000000000000000000000000000000000,
#END
COURSE:Normal
LEVEL:4
BALLOON:11,13
SCOREINIT:1000
SCOREDIFF:290
#START
100000000000100000100000000000000000000000400000,
000000000000000000000000000000000000000000000000,
100000000000100000100000000000000000000000300000,
000000000000000000000000000000000000000000000000,
400000000000000000000000000000000000000000000000,
000000000000000000000000000000000000000000000000,
100000000000100000000000100000000000000000100000,
000000000000000000000000000000000000000000000000,
100000000000100000000000100000000000000000100000,
000000000000000000000000000000000000000000000000,
100000000000100000000000100000000000000000100000,
000000000000000000000000000000000000000000000000,
400000000000000000000000100000000000000000000000,
200000000000000000000000100000000000000000000000,
100000000000100000000000100000000000000000100000,
000000000000100000000000000000100000000000000000,
100000000000100000000000100000000000000000100000,
000000000000100000000000000000100000000000000000,
100000000000100000000000100000000000000000000000,
200000000000000000000000000030000000300000300000,
300000000000000000000000000000000000000000000000,
000000000000000000000000000000000000000000000000,
100000000000100000000000200000000000000000000000,
000000000000200000000000100000000000100000000000,
100000000000200000000000000000000000000000000000,
000000000000200000000000100000000000100000000000,
700000000000000000000000000000000000000000000000,
000000000000000000000000000000800000000000000000,
000000000000200000000000200000000000100000000000,
000000000000200000000000200000000000100000000000,
000000000000200000000000200000000000100000000000,
100000000000200000000000200000000000000000000000,
400000000000000000400000000000000000000000000000,
000030000000300000300000300000000000000000000000,
#GOGOSTART
100000000000100000100000000000000000100000000000,
100000000000100000100000000000000000000000000000,
100000000000100000100000000000100000000000500000,
000000000000000000000000800000000000000000000000,
200000000000200000200000000000000000000000000000,
200000000000200000200000000000200000000000000000,
200000000000200000200000000000000000000000000000,
000030000000300000300000300000000000000000000000,
100000000000100000100000000000000000100000000000,
100000000000100000100000000000000000000000000000,
100000000000100000100000000000100000000000500000,
000000000000000000000000800000000000000000000000,
200000000000200000200000000000000000000000000000,
200000000000200000200000000000000000200000000000,
200000000000200000200000000000000000000000000000,
100000000000100000100000000000100000000000000000,
700000000000000000000000000000000000000000000000,
000000000000000000800000000000000000000000000000,
#GOGOEND
300000000000000000000000000000000000000000000000,
300000000000000000000000000000000000000000000000,
200000000000100000000000100000000000000000000000,
500000000000000000000000000000800000000000000000,
100000000000100000000000100000000000200000000000,
100000000000000000000000200000000000000000000000,
100000000000100000100000000000000000000000400000,
000000000000000000000000000000000000000000000000,
100000000000100000100000000000000000000000300000,
000000000000000000000000000000000000000000000000,
400000000000000000000000000000000000000000000000,
000000000000000000000000000000000000000000000000,
300000000000000000000000000000000000000000000000,
#END
COURSE:Easy
LEVEL:4
BALLOON:8,10
SCOREINIT:990
SCOREDIFF:380
#START
100000000000000000100000000000000000000000400000,
000000000000000000000000000000000000000000000000,
100000000000000000100000000000000000000000300000,
000000000000000000000000000000000000000000000000,
400000000000000000000000000000000000000000000000,
#BPMCHANGE 150.75
000000000000000000000000000000000000000000000000,
#BPMCHANGE 150.28
300000000000000000000000100000000000000000100000,
#BPMCHANGE 148.79
000000000000000000000000000000000000000000000000,
#BPMCHANGE 150.78
100000000000000000000000100000000000000000100000,
000000000000000000000000000000000000000000000000,
#BPMCHANGE 149.18
100000000000000000000000100000000000000000100000,
000000000000000000000000000000000000000000000000,
#BPMCHANGE 150.08
400000000000000000000000000000000000000000000000,
100000000000000000000000000000000000000000000000,
#BPMCHANGE 150.38
300000000000000000000000100000000000000000100000,
000000000000000000000000000000000000000000000000,
#BPMCHANGE 150.18
100000000000000000000000100000000000000000100000,
000000000000000000000000000000000000000000000000,
#BPMCHANGE 150.78
100000000000000000000000100000000000000000000000,
#BPMCHANGE 148.30
200000000000000000000000000000000000000000000000,
#BPMCHANGE 150
400000000000000000000000000000000000000000000000,
000000000000000000000000000000000000000000000000,
100000000000100000000000200000000000000000000000,
000000000000000000000000000000000000000000000000,
100000000000200000000000000000000000000000000000,
000000000000100000000000100000000000100000000000,
900000000000000000000000000000000000000000000000,
000000000000000000800000000000000000000000000000,
000000000000100000000000100000000000100000000000,
000000000000100000000000100000000000100000000000,
#BPMCHANGE 150.81
000000000000100000000000100000000000100000000000,
100000000000100000000000100000000000000000000000,
#BPMCHANGE 149.18
300000000000000000300000000000000000000000000000,
#BPMCHANGE 150
500000000000000000800000000000000000000000000000,
#GOGOSTART
300000000000000000100000000000000000000000000000,
100000000000000000100000000000000000000000000000,
100000000000000000100000000000000000000000500000,
000000000000000000000000800000000000000000000000,
400000000000000000200000000000000000000000000000,
200000000000000000200000000000000000000000000000,
200000000000000000200000000000000000000000000000,
500000000000000000800000000000000000000000000000,
300000000000000000100000000000000000000000000000,
100000000000000000100000000000000000000000000000,
100000000000000000100000000000000000000000500000,
000000000000000000000000800000000000000000000000,
400000000000000000100000000000000000000000000000,
200000000000000000200000000000000000000000000000,
400000000000000000100000000000000000000000000000,
400000000000000000400000000000000000000000000000,
700000000000000000000000000000000000000000000000,
000000000000000000000000000000800000000000000000,
#GOGOEND
300000000000000000000000000000000000000000000000,
300000000000000000000000000000000000000000000000,
400000000000000000000000000000000000000000000000,
#BPMCHANGE 150.20
500000000000000000000000000000800000000000000000,
000000000000100000000000100000000000100000000000,
#BPMCHANGE 150
100000000000000000000000200000000000000000000000,
100000000000000000100000000000000000000000400000,
000000000000000000000000000000000000000000000000,
100000000000000000100000000000000000000000300000,
#BPMCHANGE 148.89
000000000000000000000000000000000000000000000000,
#BPMCHANGE 151.59
400000000000000000000000000000000000000000000000,
#BPMCHANGE 152.82
000000000000000000000000000000000000000000000000,
300000000000000000000000000000000000000000000000,
#END