323 lines
13 KiB
Plaintext
323 lines
13 KiB
Plaintext
//TJADB Project
|
||
TITLE:Kazahana
|
||
TITLEJA:風花
|
||
SUBTITLE:--Yukari Hashimoto feat. Yumi Hara/THE iDOLM@STER SHINY FESTA: Groovy Tune
|
||
BPM:130
|
||
WAVE:Kazahana.ogg
|
||
OFFSET:-2.021
|
||
DEMOSTART:57.216
|
||
|
||
COURSE:Oni
|
||
LEVEL:7
|
||
BALLOON:7,7
|
||
SCOREINIT:670
|
||
SCOREDIFF:180
|
||
|
||
|
||
#START
|
||
|
||
|
||
000000000000000000000000000000000000000000000000,
|
||
000000000000000000000000000000000000000000000000,
|
||
000000000000000000000000000000000000000000000000,
|
||
000000000000000000000000000000000000000000000000,
|
||
000000000000000000000000000000000000000000000000,
|
||
100000100000000000100000000000100000200000100000,
|
||
100000100000000000100000000000100000200000000000,
|
||
100000100000000000200000000000100000200000100000,
|
||
100000100000000000200000000000100000200000000000,
|
||
100000200000200000100100000000100000200000100000,
|
||
100000200000200000100100000000100000200000200000,
|
||
100000100000200000200200000000200000200000000000,
|
||
100000200200200000100100000200200000200200100000,
|
||
100000100000200000100200000000100000200000100000,
|
||
100000100000200000100200000000100000200000000000,
|
||
100000100000200000100200000000100000200000100000,
|
||
100000100000200000100200000100200000200000100200,
|
||
100000100000200000100100000000100000200000100000,
|
||
100000200000200000100100000100200000200000100200,
|
||
100000100000200000200200000200200000300000300000,
|
||
300000000000200000100000000000100000200200100000,
|
||
000000100000200200100000000000100000200200100000,
|
||
000000100000200000100000000000100000200000100200,
|
||
100000100200200000100000000000100000200000100000,
|
||
700000000000000000000000800000100000200200100000,
|
||
000000100000200200100000000000100000200200100000,
|
||
000000100000200000100000000000200000100000100200,
|
||
100000200200100000100000000000100000200000100000,
|
||
700000000000000000000000800000000000000000000000,
|
||
200200000200200000200200000200200000200200100000,
|
||
|
||
#GOGOSTART
|
||
100000100000200000000200000200100000200000200200,
|
||
100000100000200000000200000200100000200000200200,
|
||
100000100000200000100100000100100000200000100000,
|
||
100000200200100000300000000200200000200200100000,
|
||
100000100000200000000200000200100000200000200200,
|
||
100000100000200000000200100200100000200000200200,
|
||
100000100000200000100100000100100000200000100200,
|
||
100000200100200000200200100200100000200000200200,
|
||
100000100000200000000200000200100000200000200200,
|
||
100000100000200000000200000200100000200000200200,
|
||
100000100000200000100100000100100000200000100000,
|
||
100000200200100000300000000200200000200200100000,
|
||
100000100000200000000200000200100000200000200200,
|
||
100000100000200000000200100200100000200000200200,
|
||
100000100000200000100100000100100000200000100100,
|
||
200200100100200000300000000200200000200200100000,
|
||
100000100000200000200100000100200000200000100100,
|
||
100000100000200000200100000100200000200000200200,
|
||
100000100000200000100200000200100000200000100100,
|
||
200000200000100000100200000200100000200000100200,
|
||
100000100000200000200100000100200000200000100200,
|
||
100000100000200000200100000100200000200000100200,
|
||
100000100000100200000100000100200200100000200200,
|
||
100000100000100200000200200100200200100200200000,
|
||
600000000000000000000000000000000008000000000000,
|
||
600000000000000000000000000000000008000000000000,
|
||
|
||
#GOGOEND
|
||
000000000000400000000000000000000000400000000000,
|
||
000000000000400000000000000000000000400000000000,
|
||
000000000000200000000000200000000000200000000000,
|
||
000000000000000000000000200000000000200000000000,
|
||
200000000000000000000000000000000000000000000000,
|
||
|
||
|
||
#END
|
||
|
||
|
||
COURSE:Hard
|
||
LEVEL:4
|
||
BALLOON:6,6,13
|
||
SCOREINIT:880
|
||
SCOREDIFF:263
|
||
|
||
|
||
#START
|
||
|
||
|
||
000000000000000000000000000000000000000000000000,
|
||
000000000000000000000000000000000000000000000000,
|
||
000000000000000000000000000000000000000000000000,
|
||
000000000000000000000000000000000000000000000000,
|
||
000000000000000000000000000000000000000000000000,
|
||
100000000000100000100000000000200000200000000000,
|
||
100000000000100000100000000000200000200000000000,
|
||
100000000000200000100000000000100000200000000000,
|
||
100000000000200000100000000000100000200000000000,
|
||
100000200000200000100100000000100000200000100000,
|
||
000000200000200000100100000000100000200000200000,
|
||
100000000000000000000000000000000000200000000000,
|
||
200000200200200000200000000000200000200000000000,
|
||
100000000000100000100000000000200000200000000000,
|
||
100000000000100000100000000000200000200000000000,
|
||
100000000000200000100000000000100000200000000000,
|
||
100000000000200000100000000000100000200000000000,
|
||
100000200000200000100000100000200000200000000000,
|
||
000000200000200000100000100000200000200000000000,
|
||
100000000000000000000000000000000000300000300000,
|
||
300000000000000000000000000000100000200000100000,
|
||
000000100000200000100000000000100000200000100000,
|
||
000000100000200000100000000000100000200000100000,
|
||
200000000000200000100000000000100000200000100000,
|
||
700000000000000000800000000000100000200000100000,
|
||
000000100000200000100000000000100000200000100000,
|
||
000000100000200000100000000000100000200000100000,
|
||
200000000000200000100000000000100000200000100000,
|
||
700000000000000000800000000000000000000000000000,
|
||
200200000200200000200200000000000000000000000000,
|
||
#GOGOSTART
|
||
100000000000200000000000100000100000200000000000,
|
||
100000000000200000000000100000100000200000000000,
|
||
100000000000200000100100000000100000200000100000,
|
||
100000100100100000300000000000000000000000000000,
|
||
100000000000200000000000100000100000200000000000,
|
||
100000000000200000000000100000100000200000000000,
|
||
500000000000000000000000000080000000000000200200,
|
||
200000000200000000200000200000000000000000000000,
|
||
100000000000200000000000100000100000200000000000,
|
||
100000000000200000000000100000100000200000000000,
|
||
100000000000100000100100000000100000200000100000,
|
||
500000000000000000000080000000000000000000000000,
|
||
100000000000200000000000100000100000200000000000,
|
||
100000000000200000000000100000100000200000000000,
|
||
900000000000000000000000000000000000000000000000,
|
||
000000000000000000000800000000000000000000100100,
|
||
100000000000200000200200000000200000000000100100,
|
||
100000000000200000200200000000200000000000100000,
|
||
100000000000100000000000000000000000200000000000,
|
||
200000000000000000000000000000000000000000000000,
|
||
100000100000200000200000000000100000000000100000,
|
||
100000000000000000100000000000000000100000000000,
|
||
500000000000000000000000000080000000000000000000,
|
||
400000000000000000000000400000000000000000000000,
|
||
600000000000000000000000000000000080000000000000,
|
||
600000000000000000000000000000000080000000000000,
|
||
#GOGOEND
|
||
000000000000400000000000000000000000400000000000,
|
||
000000000000400000000000000000000000400000000000,
|
||
000000000000200000000000200000000000200000000000,
|
||
000000000000000000000000200000000000200000000000,
|
||
200000000000000000000000000000000000000000000000,
|
||
|
||
|
||
#END
|
||
|
||
|
||
COURSE:Normal
|
||
LEVEL:4
|
||
BALLOON:4,4,10
|
||
SCOREINIT:1200
|
||
SCOREDIFF:505
|
||
|
||
|
||
#START
|
||
|
||
|
||
000000000000000000000000000000000000000000000000,
|
||
000000000000000000000000000000000000000000000000,
|
||
000000000000000000000000000000000000000000000000,
|
||
000000000000000000000000000000000000000000000000,
|
||
000000000000000000000000000000000000000000000000,
|
||
100000000000000000100000000000000000000000000000,
|
||
100000000000000000100000000000000000000000000000,
|
||
200000000000000000200000000000000000000000000000,
|
||
200000000000000000200000000000000000000000000000,
|
||
100000000000100000000000100000000000000000000000,
|
||
100000000000100000000000100000000000000000000000,
|
||
100000000000000000000000000000000000200000000000,
|
||
200000000000000000200000000000000000000000000000,
|
||
100000000000000000100000000000100000000000000000,
|
||
100000000000000000100000000000000000000000000000,
|
||
200000000000000000200000000000200000000000000000,
|
||
200000000000000000200000000000000000000000000000,
|
||
100000000000100000000000100000000000000000000000,
|
||
100000000000100000000000100000000000200000000000,
|
||
200000000000000000000000000000000000300000300000,
|
||
300000000000000000000000000000000000100000000000,
|
||
200000000000100000000000000000000000100000000000,
|
||
200000000000100000000000000000000000100000000000,
|
||
200000000000100000000000000000000000100000000000,
|
||
700000000000000000800000000000000000100000000000,
|
||
200000000000100000000000000000000000100000000000,
|
||
200000000000100000000000000000000000100000000000,
|
||
200000000000100000000000000000000000100000000000,
|
||
700000000000000000800000000000000000000000000000,
|
||
000000000000000000000000000000000000000000000000,
|
||
#GOGOSTART
|
||
100000000000100000000000200000000000200000000000,
|
||
100000000000100000000000200000000000200000000000,
|
||
100000000000100000000000100000000000000000000000,
|
||
100000000000000000300000000000000000000000000000,
|
||
100000000000100000000000200000000000200000000000,
|
||
100000000000100000000000200000000000200000000000,
|
||
500000000000000000000000000080000000000000000000,
|
||
000000000000000000000000000000000000000000000000,
|
||
100000000000100000000000200000000000200000000000,
|
||
100000000000100000000000200000000000200000000000,
|
||
100000000000100000000000100000000000000000000000,
|
||
500000000000000000000080000000000000000000000000,
|
||
100000000000100000000000200000000000200000000000,
|
||
100000000000100000000000200000000000200000000000,
|
||
900000000000000000000000000000000000000000000000,
|
||
000000000000800000000000000000000000000000000000,
|
||
100000000000200000000200000000200000000000000000,
|
||
100000000000200000000200000000200000000000000000,
|
||
100000000000100000000000000000000000200000000000,
|
||
200000000000000000000000000000000000000000000000,
|
||
100000000000100000000000000000100000000000100000,
|
||
100000000000000000100000000000000000100000000000,
|
||
500000000000000000000000000080000000000000000000,
|
||
400000000000000000000000400000000000000000000000,
|
||
600000000000000000000000000000000080000000000000,
|
||
600000000000000000000000000000000080000000000000,
|
||
#GOGOEND
|
||
000000000000400000000000000000000000400000000000,
|
||
000000000000400000000000000000000000400000000000,
|
||
000000000000200000000000200000000000200000000000,
|
||
000000000000000000000000200000000000200000000000,
|
||
200000000000000000000000000000000000000000000000,
|
||
|
||
|
||
#END
|
||
|
||
|
||
COURSE:Easy
|
||
LEVEL:3
|
||
BALLOON:3,3,8
|
||
SCOREINIT:970
|
||
SCOREDIFF:593
|
||
|
||
|
||
#START
|
||
|
||
|
||
000000000000000000000000000000000000000000000000,
|
||
000000000000000000000000000000000000000000000000,
|
||
000000000000000000000000000000000000000000000000,
|
||
000000000000000000000000000000000000000000000000,
|
||
000000000000000000000000000000000000000000000000,
|
||
100000000000000000000000000000000000000000000000,
|
||
100000000000000000000000000000000000000000000000,
|
||
200000000000000000000000000000000000000000000000,
|
||
200000000000000000000000000000000000000000000000,
|
||
100000000000100000000000100000000000000000000000,
|
||
100000000000100000000000100000000000000000000000,
|
||
100000000000000000000000000000000000200000000000,
|
||
200000000000000000200000000000000000000000000000,
|
||
100000000000000000100000000000000000000000000000,
|
||
100000000000000000100000000000000000000000000000,
|
||
200000000000000000200000000000000000000000000000,
|
||
200000000000000000200000000000000000000000000000,
|
||
100000000000100000000000100000000000000000000000,
|
||
100000000000100000000000100000000000000000000000,
|
||
200000000000000000000000000000000000300000000000,
|
||
300000000000000000000000000000000000100000000000,
|
||
000000000000100000000000000000000000100000000000,
|
||
000000000000000000000000000000000000200000000000,
|
||
000000000000200000000000000000000000200000000000,
|
||
700000000000000000800000000000000000100000000000,
|
||
000000000000100000000000000000000000100000000000,
|
||
000000000000000000000000000000000000200000000000,
|
||
000000000000200000000000000000000000200000000000,
|
||
700000000000000000800000000000000000000000000000,
|
||
000000000000000000000000000000000000000000000000,
|
||
#GOGOSTART
|
||
100000000000100000000000100000000000000000000000,
|
||
200000000000200000000000200000000000000000000000,
|
||
100000000000000000000000100000000000100000000000,
|
||
100000000000000000300000000000000000000000000000,
|
||
100000000000100000000000100000000000000000000000,
|
||
200000000000200000000000200000000000000000000000,
|
||
500000000000000000000000000080000000000000000000,
|
||
000000000000000000000000000000000000000000000000,
|
||
100000000000100000000000100000000000000000000000,
|
||
200000000000200000000000200000000000000000000000,
|
||
100000000000000000000000100000000000100000000000,
|
||
500000000000000000000080000000000000000000000000,
|
||
100000000000100000000000100000000000000000000000,
|
||
200000000000200000000000200000000000000000000000,
|
||
900000000000000000000000000000000000000000000000,
|
||
000000000000800000000000000000000000000000000000,
|
||
100000000000100000000000000000000000000000000000,
|
||
100000000000100000000000000000000000000000000000,
|
||
200000000000200000000000000000000000200000000000,
|
||
200000000000000000000000000000000000000000000000,
|
||
100000000000100000000000000000000000000000000000,
|
||
100000000000000000000000000000000000000000000000,
|
||
500000000000000000000000000080000000000000000000,
|
||
400000000000000000000000400000000000000000000000,
|
||
600000000000000000000000000000000080000000000000,
|
||
600000000000000000000000000000000080000000000000,
|
||
#GOGOEND
|
||
000000000000400000000000000000000000400000000000,
|
||
000000000000400000000000000000000000400000000000,
|
||
000000000000200000000000200000000000200000000000,
|
||
000000000000000000000000200000000000200000000000,
|
||
200000000000000000000000000000000000000000000000,
|
||
|
||
|
||
#END
|
||
|