Files
ESE/07 Game Music/Kiramekirari/Kiramekirari -Takatsuki Yayoi Version-.tja
T
2023-06-15 19:15:39 -05:00

732 lines
11 KiB
Plaintext

//TJADB Project
TITLE:Kiramekirari -Takatsuki Yayoi Version-
TITLEJA:キラメキラリ
SUBTITLE:--Satoru Kousaki feat. Mayako Nigo/THE iDOLM@STER SP
SUBTITLEJA:「アイドルマスター2」より
BPM:180
WAVE:Kiramekirari -Takatsuki Yayoi Version-.ogg
OFFSET:-1.665
DEMOSTART:55.991
COURSE:Edit
LEVEL:9
SCOREINIT:450
SCOREDIFF:118
#START
500000000008000000000000500000000008000000000000,
500000000008000000000000500000000008000000000000,
500000000008000000000000500000000000000000000000,
000000000000000000000000000008000000000000000000,
1120
#GOGOSTART
3000
#GOGOEND
1120
#GOGOSTART
3022,
#GOGOEND
1120
#GOGOSTART
3022
#GOGOEND
1120
#GOGOSTART
3000,
#GOGOEND
1120
#GOGOSTART
3000
#GOGOEND
1120
#GOGOSTART
3022,
#GOGOEND
1120
#GOGOSTART
3022
#GOGOEND
1120
#GOGOSTART
3000,
#GOGOEND
1020102010201012,
1022102010201022,
1020102010201012,
1022102010112000,
1020102010201012,
1022102010201022,
1020102010201012,
1022102011112000,
1120
#GOGOSTART
3000
#GOGOEND
1120
#GOGOSTART
3022,
#GOGOEND
1120
#GOGOSTART
3022
#GOGOEND
1120
#GOGOSTART
3000,
#GOGOEND
1120
#GOGOSTART
3000
#GOGOEND
1120
#GOGOSTART
3022,
#GOGOEND
1120
#GOGOSTART
3022
#GOGOEND
1120
#GOGOSTART
3000,
#GOGOEND
20202022,
02022022,
20220002,
0020202022202000,
10201121,
0010201110102022,
1000201000102012,
2210200040004000,
1020102010201012,
1022102010222020,
11210140,
11212140,
1010202210104022,
11210141,
1120201011202010,
0011201012202060,
000000000000000000000000000000000008000000000000,
11222211,
200200200200200200222222,
11222211,
#SCROLL 1.5
3
#SCROLL 2
3
#SCROLL 3
4
#SCROLL 1
0,
#GOGOSTART
1120102011201020,
1120201000404000,
1120102011201020,
1220201040004000,
1120102011201020,
1120201040400040,
1110222011102220,
1000100010222020,
1120102011201020,
1120201000404000,
1120102011201020,
1220201040004000,
1120102011201020,
1120201040400040,
1210222012102220,
1110,
#GOGOEND
1110100011101000,
1110100011101000,
1110300011103000,
1110300011103000,
1120300011203000,
1120300011203000,
1120302211203022,
1120302211203022,
1122112211112250,
000000000000000000000000000000000008000000000000,
1,
33030020,
11001100,
11110000,
11000100,
33033001,
1210201012102010,
3000300040111111,
#GOGOSTART
1120102011201022,
1120201000404000,
1120102011201022,
1220201040004000,
1120102011201022,
1122221040400040,
1210222012102220,
111
#SCROLL 3
4,
#SCROLL 1
1211100012111000,
1211200012112000,
1212100012121010,
0012100010000000,
#GOGOEND
20202022,
02022020,
40404044,
03303000,
#END
COURSE:Oni
LEVEL:9
BALLOON:12
SCOREINIT:430
SCOREDIFF:113
#START
500000000080000000000000500000000080000000000000,
500000000080000000000000500000000080000000000000,
500000000080000000000000500000000000000000000000,
000000000000000000000000000080000000000000000000,
100100200000
#GOGOSTART
300000000000
#GOGOEND
100100200000
#GOGOSTART
300000200200,
#GOGOEND
100100200000
#GOGOSTART
300000200200
#GOGOEND
100100200000
#GOGOSTART
300000000000,
#GOGOEND
100100200000
#GOGOSTART
300000000000
#GOGOEND
100100200000
#GOGOSTART
300000200200,
#GOGOEND
100100200000
#GOGOSTART
300000200200
#GOGOEND
100100200000
#GOGOSTART
300000000000,
#GOGOEND
100000200000100000200000100000200000100000100200,
100000200200100000200000100000200000100000200200,
100000200000100000200000100000200000100000100200,
100000200200100000200000100000100100200000000000,
100000200000100000200000100000200000100000100200,
100000200200100000200000100000200000100000200200,
100000200000100000200000100000200000100000100200,
100000200200100000200000100100100100200000000000,
100100200000
#GOGOSTART
300000000000
#GOGOEND
100100200000
#GOGOSTART
300000200200,
#GOGOEND
100100200000
#GOGOSTART
300000200200
#GOGOEND
100100200000
#GOGOSTART
300000000000,
#GOGOEND
100100200000
#GOGOSTART
300000000000
#GOGOEND
100100200000
#GOGOSTART
300000200200,
#GOGOEND
100100200000
#GOGOSTART
300000200200
#GOGOEND
100100200000
#GOGOSTART
300000000000,
#GOGOEND
200000000000200000000000200000000000200000200000,
000000200000000000200000200000000000200000200000,
200000000000200000200000000000000000000000200000,
000000200000200000200000200200200000200000000000,
100000000000200000000000100000100000200000100000,
000000100000200000100100100000100000200000200200,
100000000000200000100000000000100000200000100200,
200200100000200000000000400000000000400000000000,
100000200000100000200000100000200000100000100200,
100000200200100000200000100000200200200000200000,
100000100000200000100000000000100000400000000000,
100000100000200000100000200000100000400000000000,
100000100000200000200200100000100000400000200200,
100000100000200000100000000000100000400000100000,
100100200000200000100000100100200000200000100000,
000000100100200000100000100200200000200000600000,
000000000000000000000000000000000080000000000000,
100000100000200000200000200000200000100000100000,
200000200000200000200000200000200000202020202020,
100000100000200000200000200000200000100000100000,
#SCROLL 1.5
300000000000
#SCROLL 2
300000000000
#SCROLL 3
400000000000
#SCROLL 1
000000000000,
#GOGOSTART
100100200000100000200000100100200000100000200000,
100100200000200000100000000000400000400000000000,
100100200000100000200000100100200000100000200000,
100200200000200000100000400000000000400000000000,
100100200000100000200000100100200000100000200000,
100100200000200000100000400000400000000000400000,
100100100000200200200000100100100000200200200000,
100000000000100000000000100000200200200000200000,
100100200000100000200000100100200000100000200000,
100100200000200000100000000000400000400000000000,
100100200000100000200000100100200000100000200000,
100200200000200000100000400000000000400000000000,
100100200000100000200000100100200000100000200000,
100100200000200000100000400000400000000000400000,
100200100000200200200000100200100000200200200000,
100000000000100000000000100000000000000000000000,
#GOGOEND
100100100000100000000000100100100000100000000000,
100100100000100000000000100100100000100000000000,
100100100000300000000000100100100000300000000000,
100100100000300000000000100100100000300000000000,
100100200000300000000000100100200000300000000000,
100100200000300000000000100100200000300000000000,
100100200000300000200200100100200000300000200200,
100100200000300000200200100100200000300000200200,
100100200200100100200200100100100100200200500000,
000000000000000000000000000000000080000000000000,
100000000000000000000000000000000000000000000000,
300000300000000000300000000000000000200000000000,
100000100000000000000000100000100000000000000000,
100000100000100000100000000000000000000000000000,
100000100000000000000000000000100000000000000000,
300000300000000000300000300000000000000000100000,
100200100000200000100000100200100000200000100000,
300000000000300000000000400000100100100100100100,
#GOGOSTART
100100200000100000200000100100200000100000200200,
100100200000200000100000000000400000400000000000,
100100200000100000200000100100200000100000200200,
100200200000200000100000400000000000400000000000,
100100200000100000200000100100200000100000200200,
100100200200200200100000400000400000000000400000,
100200100000200200200000100200100000200200200000,
100000000000100000000000100000000000
#SCROLL 3
400000000000,
#SCROLL 1
100200100100100000000000100200100100100000000000,
100200100100200000000000100200100100200000000000,
100200100200100000000000100200100200100000100000,
000000100200100000000000100000000000000000000000,
#GOGOEND
200000000000200000000000200000000000200000200000,
000000200000000000200000200000000000200000000000,
400000000000400000000000400000000000400000400000,
000000300000300000000000300000000000000000000000,
#END
COURSE:Hard
LEVEL:7
SCOREINIT:460
SCOREDIFF:130
#START
#GOGOSTART
11001100,
11001100,
11001101,
03303000,//4
#GOGOEND
12121010,
12121000,
12121010,
1130,
12121011,
10111000,
12121020,
1122,
12121011,
10111000,
12121020,
11102220,
12121010,
12121000,
12121010,
12103000,
10202022,
02022020,
1202,
1222,
10202022,
02022020,
1202,
1222,
12121010,
12121000,
10010220,
1120,
10010220,
10102001,
11011101,
11011110,
500000000000000000000000000000000000008000000000,
22201110,
22201110,
22222220,
3330,//41
#GOGOSTART
1011101000202000,
1011101000202000,
1011101010111000,
1011101000202000,
1011101000202000,
1011101000202000,
1011100010111000,
3330,
1011101000202000,
1011101000202000,
1011101010111000,
1011101000202000,
1022202000101000,
1022202000101000,
1110100011101000,
3330,//57
#GOGOEND
12121010,
12121010,
12121010,
12121000,
12121210,
12121210,
12101210,
12121010,
12121210,
500000000000000000000000000000000000008000000000,
3,
33030000,
11001100,
11110000,
11000100,
10010000,
11102220,
3330,//75
#GOGOSTART
1011101000202000,
1011101000202000,
1011101010111010,
1011101022202000,
1022202000222000,
1022202000222000,
1110100011101000,
3334,
30301011,
01011020,
30301011,
03303000,//87
#GOGOEND
2222,
2220,
2220,
24,
,
,
#END
COURSE:Normal
LEVEL:6
SCOREINIT:540
SCOREDIFF:160
#START
#GOGOSTART
33,
33,
33,
3330,//4
#GOGOEND
1111,
12,
1111,
14,
1110,
11101000,
2,
11101000,
1110,
11101000,
2,
11101000,
1111,
12,
1111,
14,
1202,
0202,
0202,
0222,
1202,
0202,
0202,
0222,
1111,
12,
10011000,
10011000,
10011000,
12,
11101000,
11101000,
500000000000000000000000000000000008000000000000,
11101110,
22,
11101110,
3330,//41
#GOGOSTART
1111,
10002220,
1111,
10002220,
1111,
14,
11101110,
3330,
1111,
10002220,
1111,
10002220,
1111,
14,
11101110,
3330,//57
#GOGOEND
1212,
12,
1212,
12,
1212,
12,
1210,
1210,
1212,
500000000000000000000000000000000008000000000000,
3,
3002,
11,
1,
3,
3,
10101110,
3330,//75
#GOGOSTART
1111,
10002220,
1111,
10002220,
1212,
34,
11101110,
3330,
3330,
3330,
3330,
3330,//87
#GOGOEND
22,
2,
22,
24,
,
,
#END
COURSE:Easy
LEVEL:3
SCOREINIT:450
SCOREDIFF:110
#START
#GOGOSTART
3,
3,
3,
33,//4
#GOGOEND
1110,
11,
1110,
13,
1110,
12,
1110,
12,
1110,
12,
1110,
12,
1111,
1,
1111,
1,
0202,
0202,
0202,
0202,
0202,
0202,
0202,
0200,
1111,
1,
3001,
1001,
1001,
1,
12,
12,
500000000000000000000000000008000000000000000000,
3,
3,
3,
3330,//41
#GOGOSTART
1101,
1100,
1101,
1100,
1101,
1100,
1110,
3330,
1102,
2200,
1102,
2200,
1102,
2200,
33,
3330,//57
#GOGOEND
1110,
22,
1110,
22,
1110,
22,
1110,
22,
1110,
500000000000000000000000000008000000000000000000,
3300,
3300,
11,
3300,
3,
4,
11,
1110,//75
#GOGOSTART
1111,
11,
1111,
12,
1111,
1110,
33,
3330,
33,
33,
33,
33,//87
#GOGOEND
2,
2,
2,
24,
,
,
#END