Files
ESE/07 Game Music/Kuro Shirogane no Tsubasa/Kuro Shirogane no Tsubasa.tja
T
2023-06-15 19:15:39 -05:00

166 lines
7.2 KiB
Plaintext

//TJADB Project
TITLE:Kuro Shirogane no Tsubasa
TITLEJA:黒銀の翼
SUBTITLE:--Tsutomu Narita feat. Fubito Endo/Granblue Fantasy
BPM:216
WAVE:Kuro Shirogane no Tsubasa.ogg
OFFSET:-1.110
DEMOSTART:85.247
COURSE:Oni
LEVEL:9
SCOREINIT:400
SCOREDIFF:90
#START
300000000000000000000000000000000000000000000000,
000000000000000000000000000000000000300000000000,
400000000000000000400000000000000000000000000000,
000000000000000000100000200000100000300000000000,
400000400000000000000000000000000000000000000000,
000000000000000000000000000000000000100000000000,
100000200000100000100000100000200000100000100000,
100000200000100000100000100020001000100010001000,
100000000000200000000000100000100000200000000000,
100000100000200000100000000000100000200000200000,
000000100000200000000000100000200000200000200000,
100000200000200000100000200000200000100000000000,
100000100000200000000000100000100100200000000000,
100000100000200000200000000000100000200000200000,
100000100000200000000000100000100000200000000000,
100000100000200000100000200000100000200000100000,
100000000000200000000000100000100000200000000000,
100000100000200000100000000000100000200000200000,
100000100000200000000000100000200000200000200000,
100000200000200000100000200000200000100000000000,
100000100000200000000000100000100100200000000000,
100000100000200000200000000000100000200000200000,
300000000000000000400000000000000000400000000000,
000000300000000000000000400000000000300000000000,
100000000000100000000000100000100000100000000000,
100000100000100000100000100000100000100000100000,
100000000000100000100000100000000000100000000000,
100000100000100000000000100000100000100000000000,
100000000000100000100000100000100000100000100000,
100000100000100000100000100000100000100000100000,
100000000000100000100000100000100000100000000000,
300000000000000000400000000000000000300000000000,
100000000000200000000000100000200000000000100000,
200000000000100000200000000000000000100000000000,
100000000000200000000000100000200000000000100000,
200000000000100000200000000000200000100000000000,
100000000000200000000000100000200000000000100000,
200000000000100000200000000000000000100000000000,
100000100000200000200000100000100000200000300000,
000000000000000000000000000000000000000000000000,
100000000000200000000000200000000000100000200000,
000000100000200000000000100000200000000000100000,
100000000000200000000000100000100000100000000000,
100000100000100000000000100000100000100000100000,
100000000000200000100000000000100000200000000000,
100000000000200000000000100000200000000000100000,
100000000000200000000000100000100000100000000000,
100000100000100000000000200000100000100000100000,
100000000000200000100000000000100000200000000000,
100000000000200000000000100000200000000000100000,
100000000000200000000000100000100000200000100000,
200000000000100000200000000000100000100000100000,
300000300000000000400000000000000000300000300000,
000000400000000000000000400000000000300000000000,
300000300000000000400000000000000000300000300000,
000000400000000000000000300000000000400000000000,
300000300000000000400000000000000000300000300000,
000000400000000000000000400000000000300000000000,
300000300000000000400000000000000000300000300000,
000000400000000000000000200000100000200000000000,
100000100000000000200000100000000000200000100000,
000000100000200000000000100000000000200000000000,
100000100000000000100000200000000000100000500000,
000000000000000000000008000000000000200000000000,
100000100000000000200000100000000000200000100000,
000000100000200000000000200000000000100000000000,
100000100000000000100000200000000000100000500000,
000000000000000000000008000000000000000000000000,
500000000000000000000000000000000008000000000000,
500000000000000000000000000000000008000000000000,
500000000008000000000000500000000008000000000000,
500000000008000000000000500000000008000000000000,
500000000000000000000000000000000000000000000000,
000000000008000000000000500000000008000000000000,
400000400000000000400000000000400000300000400000,
000000000000000000000000000000000000100000000000,
#GOGOSTART
100000100000200000000000100000100000200000100000,
000000100000200000100000100000000000200000000000,
100000000000200000000000100000100000200000100000,
000000100000200000100000000000100000200000100000,
100000000000200000100000000000100000200000100000,
000000100000200000000000100000000000200000500000,
000000000000000000000000000000000008000000000000,
200000100000200000100000200000200000100000200000,
100000000000200000000000100000100000200000000000,
100000000000200000000000100000100000200000000000,
100000001000000050000000000000000000000000000000,
000000000008000000000000200000000000100000000000,
100000000000200000000000100000100000200000500000,
000000000000000000000008000000000000100000100000,
400000000000300000400000000000300000400000000000,
300000400000000000300000400000000000300000000000,
100000100000200000000000100000100000200000100000,
000000100000200000100000100000000000200000000000,
100000000000200000000000100000100000200000100000,
100000100000200000100000000000100000200000100000,
100000000000200000100000000000100000200000100000,
100000000000200000000000100000200000000000500000,
000000000000000000000000000000000008000000000000,
200000100000100000200000000000200000200000200000,
100000000000200000000000100000100000200000000000,
100000000000200000000000100000100000200000000000,
100000001000000050000000000000000000000000000000,
000000000008000000000000200000000000200000000000,
100000000000200000000000100000100000000000200000,
100000000000200000000000100000100000200000500000,
000000000000000000000000000000000000000000000000,
000000000000000000000008000000000000000000000000,
100000100000000000100000000000000000100000100000,
000000100000000000000000200000000000100000000000,
100000100000000000100000000000000000100000100000,
000000100000000000000000100000000000200000000000,
100000100000000000100000000000000000100000100000,
000000100000000000000000200000000000100000000000,
100000100000000000100000000000000000100000100000,
000000100000000000000000200000200000100000100000,
100000000000100000000000100000000000100000100000,
000000100000100000000000200000000000100000000000,
100000100000000000100000100000000000100000100000,
000000100000100000000000100000000000200000000000,
100000000000100000000000100000000000100000100000,
000000100000100000000000200000000000100000000000,
100000100000000000100000100000000000100000100000,
000000100000100000000000200000200000200000200000,
100000200000000000100000100000100000200000200000,
000000100000200000000000000000100000200000000000,
100000200000200000100000200000000000100000200000,
000000100000200000000000000000100000200000000000,
100000200000200000100000200000000000200000100000,
000000100000200000100000000000100000200000000000,
100000200000200000100000200000000000100000200000,
000000100000200000100000100000200000100000200000,
100000200000200000100000100000100100200000200000,
100000100000200000100000100000100000200000100000,
100000200000200000100000200000100000200000100000,
100000100000200000100000100000100100200000100000,
100000200000200000100000100000100000200000100000,
100000100000200000100000100100200000100000200000,
400000400000400000400000000000400000300000400000,
#GOGOEND
#END