343 lines
14 KiB
Plaintext
343 lines
14 KiB
Plaintext
//TJADB Project
|
|
TITLE:Life Will Change
|
|
TITLEJA:Life Will Change
|
|
SUBTITLE:--Shoji Meguro feat. Benjamin Franklin/Persona 5
|
|
SUBTITLEJA:「Persona5」より
|
|
BPM:132
|
|
WAVE:Life will Change.ogg
|
|
OFFSET:-1.952
|
|
DEMOSTART:43.114
|
|
|
|
COURSE:Oni
|
|
LEVEL:8
|
|
BALLOON:15,15,13
|
|
SCOREINIT:650
|
|
SCOREDIFF:168
|
|
|
|
#START
|
|
|
|
|
|
000000000000000000000000000000000000000000000000,
|
|
200000200200000000200000200200000000200000200200,
|
|
000000200000200200000000100100000000100100000000,
|
|
200000200200000000200000200200000000200000200200,
|
|
000000200000200200000000100100000000100100000000,
|
|
200000200200000000200000200200000000200000200200,
|
|
000000200000200200000000100100000000100100000000,
|
|
100000200200100000200000100200000000100000200200,
|
|
100000200000100200000000100100000000100100000000,
|
|
100000200200100000200000100200000000100000200200,
|
|
100000200000100200000000100100000000100100000000,
|
|
100000200200100000200000100200000000100000200200,
|
|
100000200000100200000000100100000000100100000000,
|
|
100000200200100000200000100200000000100000200200,
|
|
100000000000000000200200200000000200000000200200,
|
|
100000000000200000100000100000100100200000100000,
|
|
100000000000200000100000000000100000200000100100,
|
|
100000000000200000100000000000100000200000100000,
|
|
100000000000200000100000100000200100000000300000,
|
|
000000300000200000100000100000200100000000300000,
|
|
000000300000200000100000100000200100000000400000,
|
|
000000400000000000600000000000000000000000000000,
|
|
000000000000000080000000100000100000100000100100,
|
|
100000100000200000100000100000100100000000200200,
|
|
000000200000100200200200100100000100000000100100,
|
|
100000100000200000100000100000100100000000200200,
|
|
000000100000200100100100200200000200000200100100,
|
|
200000100000200000100000100000100100000000200200,
|
|
000000100100000000100100000000100000000000000000,
|
|
600000000000000000000000000000000000000000000000,
|
|
000000000000000000000080000000000000000000100100,
|
|
100000100000200000100000100000200200000000200200,
|
|
000000200000100200200200100100000100000000100100,
|
|
100000100200100000200000100000200200000000200200,
|
|
000000100000200100100100200200000200000200100100,
|
|
200000100000200000100000100000200200000000200200,
|
|
000000100100000000100100000000100000000000000000,
|
|
600000000000000000000000000000000000000000000000,
|
|
000000000000000000000000000000000080000000000000,
|
|
100200200000100000200000100100200000100000200200,
|
|
100000200000100200200000100000200000100100200000,
|
|
100200200000100000200000100100200000100000200200,
|
|
100000200000100200200000100100200000100100200000,
|
|
700000000000000000000000000000000000000000000000,
|
|
000000000000000000000000000000000000000000000000,
|
|
000000000000000000000000000000000000000000000000,
|
|
000000000000000000000080000000000000000000000000,
|
|
100200200000100200000100200000200200100200200000,
|
|
700000000000000000000000000000000000000000000000,
|
|
000000000000000000000000000000000000000000000000,
|
|
000000000000000000000000000000000000000000000000,
|
|
000000000000000000000080000000000000000000000000,
|
|
100000200000100200000200100000100200100100200100,
|
|
#GOGOSTART
|
|
100000000200100000200000100000200200000000200200,
|
|
100000100000200100200200100100000100000000200000,
|
|
100000000200100000200000100000200200000000200200,
|
|
100000100000200100200200100100000100200200100000,
|
|
100000000200100000200000100000200000300000300000,
|
|
400000000400000000300000000000300000000000300000,
|
|
100000200200100000100000000000200200100000000000,
|
|
100000200000100200000100100000200200000100200000,
|
|
100000000200100000200000100000200200000000200200,
|
|
100000100000200100200200100100000100000000200000,
|
|
100000000200100000200000100000200200000000200200,
|
|
100000100000200100200200100100000100200200100000,
|
|
100000000200100000200000100000000000300000300000,
|
|
400000000000300000000000400000000000000030000000,
|
|
400000007000000000000000000000000000000000000000,
|
|
000000000000000000000000000800000000000000000000,
|
|
100100100000200000200200100000100000200000200000,
|
|
#GOGOEND
|
|
400000000000000000000000000000000000000000000000,
|
|
|
|
|
|
#END
|
|
|
|
COURSE:Hard
|
|
LEVEL:6
|
|
BALLOON:22,13,10
|
|
SCOREINIT:800
|
|
SCOREDIFF:215
|
|
|
|
#START
|
|
|
|
|
|
000000000000000000000000000000000000000000000000,
|
|
200000200000000000200000200000000000200000200000,
|
|
000000200000200000000000200000000000200000000000,
|
|
200000200000000000200000200000000000200000200000,
|
|
000000200000200000000000200000000000200000000000,
|
|
200000200000000000200000200000000000200000200000,
|
|
000000200000200000000000200000000000200000000000,
|
|
100000100000000000100000100000000000100000100000,
|
|
000000100000100000000000200000000000200000000000,
|
|
100000100000000000100000100000000000100000100000,
|
|
000000100000100000000000200000000000200000000000,
|
|
100000100000000000100000100000000000100000100000,
|
|
000000100000100000000000200000000000200000000000,
|
|
100000100000000000100000100000000000100000100000,
|
|
100000000000000000200000200000000200000000200000,
|
|
100000000000200000000000100000000200000000100000,
|
|
100000000000200000100000000000100000200000100000,
|
|
100000000000200000100000000000100000200000100000,
|
|
100000000000200000100000100000000100000000300000,
|
|
000000300000200000100000100000000100000000300000,
|
|
000000300000200000100000100000000100000000400000,
|
|
000000400000000000600000000000000000000000000000,
|
|
000000000000000000000080000000000000000000100000,
|
|
000000100000200000100000200000100000000000200000,
|
|
000000100000200000100000100000000100000000100000,
|
|
000000100000200000100000100000100000000000200000,
|
|
000000100000200000100000100000000100000000100000,
|
|
000000100000200000100000200000300000000000300000,
|
|
000000200000000000200000000000100000000000000000,
|
|
600000000000000000000000000000000000000000000000,
|
|
000000000000000000000080000000000000000000100000,
|
|
000000100000200000100000100000200000000000200000,
|
|
000000100000200000100000100000000100000000100000,
|
|
000000100000200000100000100000200000000000200000,
|
|
000000100000200000100000100000000100000000100000,
|
|
000000100000200000100000100000400000000000400000,
|
|
000000100000000000100000000000200000000000000000,
|
|
600000000000000000000000000000000000000000000000,
|
|
000000000000000000000000000000000080000000000000,
|
|
100100100000200000200000100000100000200000000000,
|
|
100000200000100000200000100000100000200000000000,
|
|
100100100000200000200000100000100000200000000000,
|
|
100000200000100000200000100000100000200000000000,
|
|
700000000000000000000000000000000000000000000000,
|
|
000000000000000000000000000000000000000000000000,
|
|
000000000000000000000000000000000000000000000000,
|
|
000000000000000000000000000000000000000000000000,
|
|
000000000000000000000000800000000000000000000000,
|
|
700000000000000000000000000000000000000000000000,
|
|
800000000000000000000000000000000000000000000000,
|
|
000000000000000000000000000000000000000000000000,
|
|
#GOGOSTART
|
|
100000000100000000200000100000200000000000200000,
|
|
000000100000200000100100100000000100000000200000,
|
|
100000000100000000200000100000200000000000200000,
|
|
000000100000200000100100100000000100000000200000,
|
|
100000000100000000000000000000000000300000300000,
|
|
300000000300000000300000000000300000000000300000,
|
|
000000000000000000000000000000200000200000000000,
|
|
100000200000000200000000100000000200000000200000,
|
|
100000000100000000200000100000200000000000200000,
|
|
000000100000200000100100100000000100000000200000,
|
|
100000000100000000200000100000200000000000200000,
|
|
000000100000200000100100100000000100000000200000,
|
|
100000000100000000000000000000000000300000300000,
|
|
400000000000400000000000400000000000000030000000,
|
|
300000007000000000000000000000000000000000000000,
|
|
000000000000000000000000000800000000000000000000,
|
|
100000100000200000000000100000100000100000100000,
|
|
#GOGOEND
|
|
400000000000000000000000000000000000000000000000,
|
|
|
|
|
|
#END
|
|
|
|
COURSE:Normal
|
|
LEVEL:4
|
|
BALLOON:17,9,7
|
|
SCOREINIT:1080
|
|
SCOREDIFF:388
|
|
|
|
#START
|
|
|
|
|
|
000000000000000000000000000000000000000000000000,
|
|
200000000000000000200000000000000000200000000000,
|
|
000000200000000000000000100000000000100000000000,
|
|
200000000000000000200000000000000000200000000000,
|
|
000000200000000000000000100000000000100000000000,
|
|
200000000000000000200000000000000000200000000000,
|
|
000000200000000000000000100000000000100000000000,
|
|
100000000000000000100000000000000000100000000000,
|
|
000000100000000000000000200000000000200000000000,
|
|
100000000000000000100000000000000000100000000000,
|
|
000000100000000000000000200000000000200000000000,
|
|
100000000000000000100000000000000000100000000000,
|
|
000000100000000000000000200000000000200000000000,
|
|
500000000000000000000000000000000000000000000080,
|
|
000000000000000000000000200000000000000000000000,
|
|
100000000000000000000000100000000000000000000000,
|
|
100000000000000000000000100000000000000000000000,
|
|
100000000000000000000000200000000000000000000000,
|
|
100000000000000000000000100000000000000000300000,
|
|
000000300000000000000000100000000000000000300000,
|
|
000000300000000000000000100000000000000000400000,
|
|
000000400000000000600000000000000000000000000000,
|
|
000000000000000000000080000000000000000000100000,
|
|
000000000000100000000000100000000000000000100000,
|
|
000000000000000000000000200000000000000000100000,
|
|
000000000000100000000000100000000000000000100000,
|
|
000000000000000000000000200000000000000000100000,
|
|
000000000000100000000000100000000000000000300000,
|
|
000000000000000000000000000000100000000000000000,
|
|
600000000000000000000000000000000000000000000000,
|
|
000000000000000000000080000000000000000000100000,
|
|
000000000000100000000000100000000000000000200000,
|
|
000000000000000000000000200000000000000000100000,
|
|
000000000000100000000000100000000000000000200000,
|
|
000000000000000000000000200000000000000000100000,
|
|
000000000000100000000000100000000000000000400000,
|
|
000000000000000000000000000000100000000000000000,
|
|
600000000000000000000000000000000000000000000000,
|
|
000000000000000000000000000000000080000000000000,
|
|
100000000000100000000000100000000000100000000000,
|
|
100000000000100000000000100000100000100000000000,
|
|
100000000000100000000000100000000000100000000000,
|
|
100000000000100000000000200000200000200000000000,
|
|
700000000000000000000000000000000000000000000000,
|
|
000000000000000000000000000000000000000000000000,
|
|
000000000000000000000000000000000000000000000000,
|
|
000000000000000000000000000000000000000000000000,
|
|
000000000000000000000000800000000000000000000000,
|
|
700000000000000000000000000000000000000000000000,
|
|
800000000000000000000000000000000000000000000000,
|
|
000000000000000000000000000000000000000000000000,
|
|
#GOGOSTART
|
|
100000000000000000000000000000100000000000100000,
|
|
000000100000000000000000100000000000000000000000,
|
|
100000000000000000000000000000100000000000100000,
|
|
000000100000000000000000100000000000000000000000,
|
|
300000000000000000000000000000000000300000000000,
|
|
300000000000000000300000000000300000000000300000,
|
|
000000000000000000000000000000000000000000000000,
|
|
000000100000000000000000200000000000000000000000,
|
|
100000000000000000000000000000200000000000200000,
|
|
000000100000000000000000100000000000000000000000,
|
|
100000000000000000000000000000200000000000200000,
|
|
000000100000000000000000100000000000000000000000,
|
|
300000000000000000000000000000000000300000000000,
|
|
300000000000000000300000000000300000000000700000,
|
|
000000000000000000000000000800000000000000000000,
|
|
100000000000100000000000100000100000100000000000,
|
|
#GOGOEND
|
|
400000000000000000000000000000000000000000000000,
|
|
|
|
|
|
#END
|
|
|
|
COURSE:Easy
|
|
LEVEL:3
|
|
BALLOON:11,7,6
|
|
SCOREINIT:1020
|
|
SCOREDIFF:575
|
|
|
|
#START
|
|
|
|
|
|
000000000000000000000000000000000000000000000000,
|
|
200000000000000000000000000000000000200000000000,
|
|
000000000000000000000000200000000000200000000000,
|
|
200000000000000000000000000000000000200000000000,
|
|
000000000000000000000000200000000000200000000000,
|
|
200000000000000000000000000000000000200000000000,
|
|
000000000000000000000000200000000000200000000000,
|
|
100000000000000000000000000000000000100000000000,
|
|
000000000000000000000000100000000000100000000000,
|
|
100000000000000000000000000000000000100000000000,
|
|
000000000000000000000000100000000000100000000000,
|
|
100000000000000000000000000000000000100000000000,
|
|
000000000000000000000000100000000000100000000000,
|
|
500000000000000000000000000000000000000000000080,
|
|
000000000000000000000000000000000000000000000000,
|
|
100000000000000000000000000000000000000000000000,
|
|
100000000000000000000000000000000000000000000000,
|
|
100000000000000000000000000000000000000000000000,
|
|
100000000000000000000000100000000000000000300000,
|
|
000000000000000000000000100000000000000000300000,
|
|
000000000000000000000000100000000000000000600000,
|
|
000000000000000000000000000000000000000000000000,
|
|
000000000000000000000080000000000000000000100000,
|
|
000000000000100000000000100000000000000000000000,
|
|
000000000000000000000000100000000000000000100000,
|
|
000000000000100000000000100000000000000000000000,
|
|
000000000000000000000000100000000000000000100000,
|
|
000000000000100000000000100000000000000000000000,
|
|
000000000000000000000000000000000000000000000000,
|
|
600000000000000000000000000000000000000000000000,
|
|
000000000000000000000080000000000000000000100000,
|
|
000000000000100000000000100000000000000000000000,
|
|
000000000000000000000000200000000000000000100000,
|
|
000000000000100000000000100000000000000000000000,
|
|
000000000000000000000000200000000000000000100000,
|
|
000000000000100000000000100000000000000000000000,
|
|
000000000000000000000000000000000000000000000000,
|
|
600000000000000000000000000000000000000000000000,
|
|
000000000000000000000000000080000000000000000000,
|
|
100000000000100000000000100000000000100000000000,
|
|
100000000000100000000000100000000000000000000000,
|
|
200000000000200000000000200000000000200000000000,
|
|
200000000000200000000000200000000000000000000000,
|
|
700000000000000000000000000000000000000000000000,
|
|
000000000000000000000000000800000000000000000000,
|
|
700000000000000000000000000000000000000000000000,
|
|
800000000000000000000000000000000000000000000000,
|
|
000000000000000000000000000000000000000000000000,
|
|
#GOGOSTART
|
|
100000000000000000000000000000000000000000000000,
|
|
000000100000000000000000100000000000000000000000,
|
|
100000000000000000000000000000000000000000000000,
|
|
000000100000000000000000100000000000000000000000,
|
|
300000000000000000000000000000000000000000000000,
|
|
300000000000000000300000000000300000000000300000,
|
|
000000000000000000000000000000000000000000000000,
|
|
000000100000000000000000100000000000000000000000,
|
|
100000000000000000000000000000000000000000000000,
|
|
000000100000000000000000200000000000000000000000,
|
|
100000000000000000000000000000000000000000000000,
|
|
000000100000000000000000200000000000000000000000,
|
|
300000000000000000000000000000000000000000000000,
|
|
400000000000000000400000000000000000000000700000,
|
|
000000000000000000000000000800000000000000000000,
|
|
000000000000000000000000100000000000100000000000,
|
|
#GOGOEND
|
|
400000000000000000000000000000000000000000000000,
|
|
|
|
|
|
#END
|