455 lines
19 KiB
Plaintext
455 lines
19 KiB
Plaintext
//TJADB Project
|
|
TITLE:MEGARE!
|
|
TITLEJA:MEGARE!
|
|
SUBTITLE:--Ryuichi Takada/THE iDOLM@STER 2
|
|
BPM:180
|
|
WAVE:MEGARE!.ogg
|
|
OFFSET:-2.778
|
|
DEMOSTART:78.777
|
|
|
|
COURSE:Oni
|
|
LEVEL:7
|
|
SCOREINIT:520
|
|
SCOREDIFF:138
|
|
NOTESDESIGNER3:Kuboken
|
|
|
|
|
|
#START
|
|
|
|
|
|
100000100000200000100000100100100000200000100000,
|
|
000000100000200000100000100000000000200000000000,
|
|
100000200200200000100000000000100000200000100000,
|
|
000000100000200000000000400000200000400000200000,
|
|
200000100000100000200000100100100000200000100000,
|
|
000000100000200000100000100000000000200000000000,
|
|
100000200200200000100000200000000000200000200000,
|
|
000000100100100000100000100000400000400000000000,
|
|
|
|
#GOGOSTART
|
|
100100100000100000000000100000200000100000000000,
|
|
100100100000100000000000100000000000100000200000,
|
|
100100100000100000000000100000200000100000000000,
|
|
100100100000100000000000100000000000100000200000,
|
|
100100100000100000000000100000200000100000000000,
|
|
100100100000100100100000100100100000100100100000,
|
|
600000000000000000000000000000000008000000000000,
|
|
300000300000300000000000300000000000400000000000,
|
|
|
|
#GOGOEND
|
|
100000100000000000100000200000100000100000200000,
|
|
100000100000000000100000200000100000100000000000,
|
|
100000000000000000100000200000000000100000200000,
|
|
100000100000000000100000200000000000000000000000,
|
|
400000000000000000100000200000100000100000200000,
|
|
100000100000000000100000200000100000100000200000,
|
|
100000100000200000100000200000100000200000100000,
|
|
100000200000200000000000200000200000200000200000,
|
|
100000100000000000100000200000100000100000000000,
|
|
100000100000000000100000200000100000100000000000,
|
|
100000100000200000000000100000100000200000000000,
|
|
100000100000200000000000100000000000000000000000,
|
|
100000100000000000100000200000100000100000000000,
|
|
100000100000000000100000200000100000100000000000,
|
|
100000100000200000200000100000100000200000200000,
|
|
100000100000100000000000200000200000400000000000,
|
|
100000100000200000100000200000100000100000200000,
|
|
100000100000200000100000200000100000100000200000,
|
|
100000100000200000200000100000100000200000200000,
|
|
100000100000200000100000200000000000000000200000,
|
|
100000100000200000100000200000100000100000200000,
|
|
100000100000200000100000200000100000100000200000,
|
|
100000100000200000000000100000100000200000000000,
|
|
100000100000100000000000200000200000200000200000,
|
|
100000000000200000100000100000000000200000000000,
|
|
100000000000200000100000100000000000200000100000,
|
|
200000000000200000100000100000200000200000000000,
|
|
100000000000200000100000100000000000200000000000,
|
|
100000000000100000100000200000000000200000000000,
|
|
100000000000100000100000200000000000200000000000,
|
|
500000000000000000000008000000000000200000000000,
|
|
100000000000000000000000100000000000200000000000,
|
|
100000000000200000100000100000000000200000000000,
|
|
100000000000200000100000100000000000200000100000,
|
|
200000000000200000100000100000200000200000000000,
|
|
100000000000200000100000100000000000200000100000,
|
|
000000100000200000200000100000100000200000100000,
|
|
000000100000200000200000100000100000200000100000,
|
|
200000000000100000000000300000000000100000000000,
|
|
300000000000100000000000300000000000000000000000,
|
|
200000200000200000200000000000200200200200200000,
|
|
100000100000200000100000100100100000200000100000,
|
|
000000100000200000100000100000000000200000000000,
|
|
100000200200200000100000000000100000200000100000,
|
|
000000100000200000000000400000200000400000200000,
|
|
200000100000100000200000100100100000200000100000,
|
|
000000100000200000100000100000000000200000000000,
|
|
100000200200200000100000200000000000100000400000,
|
|
000000500000000000000000000000000008000000000000,
|
|
100000100000200000100000100100100000200000100000,
|
|
000000100000200000100000100000000000200000000000,
|
|
100000200200200000100000000000100000200000100000,
|
|
000000100000200000000000400000200000400000200000,
|
|
200000100000100000200000100100100000200000100000,
|
|
000000100000200000100000100000000000200000000000,
|
|
100000200200200000100000200000000000200000200000,
|
|
000000100100100000100000100000400000400000000000,
|
|
|
|
#GOGOSTART
|
|
100100100000100000000000100000200000100000000000,
|
|
100100100000100000000000100000000000100000200000,
|
|
100100100000100000000000100000200000100000000000,
|
|
100100100000100000000000100000000000100000200000,
|
|
100100100000100000000000100000200000100000000000,
|
|
100100100000100100100000100100100000100100100000,
|
|
600000000000000000000000000000000008000000000000,
|
|
|
|
#GOGOEND
|
|
000000400000400000000000000000400000400000000000,
|
|
|
|
#GOGOSTART
|
|
100100100000100000000000100000200000100000000000,
|
|
100100100000100000000000100000000000100000200000,
|
|
100100100000100000000000100000200000100000000000,
|
|
100100100000100000000000100000000000100000200000,
|
|
100100100000100000000000100000200000100000000000,
|
|
100100100000100100100000100100100000100100100000,
|
|
600000000000000000000000000000000008000000000000,
|
|
300000300000300000000000400000400000400000400000,
|
|
|
|
#GOGOEND
|
|
|
|
|
|
#END
|
|
|
|
|
|
COURSE:Hard
|
|
LEVEL:4
|
|
BALLOON:8
|
|
SCOREINIT:490
|
|
SCOREDIFF:133
|
|
|
|
|
|
#START
|
|
|
|
|
|
100000100000100000000000100000000000100000100000,
|
|
000000100000100000000000100000000000100000000000,
|
|
100000100000200000200000000000100000000000100000,
|
|
000000100000100000000000400000000000400000000000,
|
|
100000100000100000000000100000000000100000100000,
|
|
000000100000100000000000100000000000100000000000,
|
|
100000100000200000000000200000000000200000200000,
|
|
000000100000100000100000100000200000200000000000,
|
|
#GOGOSTART
|
|
300000000000100000100000100000000000100000000000,
|
|
300000000000100000100000100000000000200000000000,
|
|
300000000000100000100000100000000000100000000000,
|
|
300000000000100000100000100000000000200000000000,
|
|
300000000000100000100000100000000000100000000000,
|
|
300000000000100000100000100000000000200000000000,
|
|
600000000000000000000000000000000080000000000000,
|
|
300000300000300000000000300000000000400000000000,
|
|
#GOGOEND
|
|
000000000000000000000000200000000000000000000000,
|
|
000000000000000000000000200000000000000000000000,
|
|
000000000000000000000000200000000000000000000000,
|
|
000000000000000000000000200000000000000000000000,
|
|
400000000000000000000000200000000000000000000000,
|
|
400000000000000000000000200000000000000000000000,
|
|
400000000000200000000000200000200000200000200000,
|
|
700000000000000000000000000000800000000000000000,
|
|
100000000000000000100000200000000000200000000000,
|
|
100000000000100000000000200000000000200000000000,
|
|
100000000000100000000000200000000000200000000000,
|
|
100000100000100000000000200000000000000000000000,
|
|
100000000000000000100000200000000000200000000000,
|
|
100000000000100000000000200000000000200000000000,
|
|
100000100000100000000000200000200000200000000000,
|
|
100000100000100000000000100000100000200000200000,
|
|
100000000000100000100000200000000000200000000000,
|
|
100000000000100000100000200000000000200000000000,
|
|
100000000000100000100000200000000000200000000000,
|
|
100000100000100000000000200000000000000000200000,
|
|
100000000000100000100000200000000000200000000000,
|
|
100000000000100000100000200000000000200000000000,
|
|
100000100000100000000000200000200000200000000000,
|
|
100000100000100000000000100000100000200000200000,
|
|
100000000000000000100000100000000000200000000000,
|
|
100000000000000000100000100000000000200000000000,
|
|
100000000000000000100000100000000000200000000000,
|
|
100000000000000000100000100000000000200000000000,
|
|
100000000000100000100000100000000000200000000000,
|
|
100000000000100000100000100000000000200000000000,
|
|
500000000000000000000080000000000000200000000000,
|
|
100000000000000000000000100000000000200000000000,
|
|
100000000000200000100000100000000000200000000000,
|
|
100000000000200000100000100000000000200000200000,
|
|
100000000000200000100000100000200000200000000000,
|
|
100000000000200000100000100000000000100000100000,
|
|
100000000000200000200000100000000000100000100000,
|
|
100000000000200000200000100000000000100000100000,
|
|
100000000000100000000000300000000000100000000000,
|
|
300000000000100000000000300000000000000000000000,
|
|
200000200000200000200000000000000000000000000000,
|
|
100000100000200000000000100000000000200000100000,
|
|
000000100000200000200000100000000000100000000000,
|
|
100000100000200000200000000000100000000000100000,
|
|
000000100000100000000000400000000000400000000000,
|
|
100000100000200000000000100000000000200000100000,
|
|
000000100000200000200000100000000000100000000000,
|
|
100000100000200000000000200000000000100000400000,
|
|
000000600000000000000000000000000080000000000000,
|
|
100000100000200000000000100000000000200000100000,
|
|
000000100000200000200000100000000000100000000000,
|
|
100000100000200000200000000000100000000000100000,
|
|
000000100000100000000000400000000000400000000000,
|
|
100000100000200000000000100000000000200000100000,
|
|
000000100000200000200000100000000000100000000000,
|
|
100000100000200000000000200000000000200000200000,
|
|
000000100000100000100000100000200000200000000000,
|
|
#GOGOSTART
|
|
300000000000100000100000100000000000100000000000,
|
|
300000000000100000100000100000000000200000000000,
|
|
300000000000100000100000100000000000100000000000,
|
|
300000000000100000100000100000000000200000000000,
|
|
300000000000100000100000100000000000100000000000,
|
|
300000000000100000100000100000000000200000000000,
|
|
600000000000000000000000000000000080000000000000,
|
|
#GOGOEND
|
|
000000200000200000000000000000200000200000000000,
|
|
#GOGOSTART
|
|
300000000000100000100000100000000000100000000000,
|
|
300000000000100000100000100000000000200000000000,
|
|
300000000000100000100000100000000000100000000000,
|
|
300000000000100000100000100000000000200000000000,
|
|
300000000000100000100000100000000000100000000000,
|
|
300000000000100000100000100000000000200000000000,
|
|
600000000000000000000000000000000080000000000000,
|
|
300000300000300000000000300000300000300000300000,
|
|
#GOGOEND
|
|
|
|
|
|
#END
|
|
|
|
|
|
COURSE:Normal
|
|
LEVEL:4
|
|
BALLOON:6
|
|
SCOREINIT:510
|
|
SCOREDIFF:153
|
|
|
|
|
|
#START
|
|
|
|
|
|
000000000000100000000000000000000000100000000000,
|
|
000000000000100000000000100000000000100000000000,
|
|
000000000000100000000000000000000000100000000000,
|
|
000000000000100000000000400000000000400000000000,
|
|
000000000000100000000000000000000000100000000000,
|
|
000000000000100000000000100000000000100000000000,
|
|
000000000000100000000000000000000000100000000000,
|
|
000000000000100000000000100000000000100000000000,
|
|
#GOGOSTART
|
|
300000000000300000000000300000000000400000000000,
|
|
300000000000300000000000300000000000400000000000,
|
|
300000000000300000000000300000000000400000000000,
|
|
300000000000300000000000300000000000400000000000,
|
|
300000000000300000000000300000000000400000000000,
|
|
300000000000300000000000300000000000400000000000,
|
|
600000000000000000000000000000000080000000000000,
|
|
300000000000300000000000300000000000400000000000,
|
|
#GOGOEND
|
|
000000000000000000000000200000000000000000000000,
|
|
000000000000000000000000200000000000000000000000,
|
|
000000000000000000000000200000000000000000000000,
|
|
000000000000000000000000200000000000000000000000,
|
|
400000000000000000000000200000000000000000000000,
|
|
400000000000000000000000200000000000000000000000,
|
|
400000000000200000000000200000000000200000000000,
|
|
700000000000000000000000000000800000000000000000,
|
|
100000000000000000000000200000000000000000000000,
|
|
100000000000000000000000200000000000000000000000,
|
|
100000000000100000000000200000000000000000000000,
|
|
100000000000100000000000200000000000000000000000,
|
|
100000000000000000000000200000000000000000000000,
|
|
100000000000000000000000200000000000000000000000,
|
|
100000000000100000000000200000000000200000000000,
|
|
100000000000000000000000000000000000200000000000,
|
|
100000000000000000000000200000000000000000000000,
|
|
100000000000000000000000200000000000000000000000,
|
|
100000000000100000000000200000000000000000000000,
|
|
100000000000100000000000200000000000000000000000,
|
|
100000000000000000000000200000000000000000000000,
|
|
100000000000000000000000200000000000000000000000,
|
|
100000000000100000000000200000000000200000000000,
|
|
100000000000000000000000000000000000000000000000,
|
|
500000000000000000000080000000000000200000000000,
|
|
500000000000000000000080000000000000200000000000,
|
|
500000000000000000000080000000000000200000000000,
|
|
500000000000000000000080000000000000200000000000,
|
|
500000000000000000000080000000000000200000000000,
|
|
500000000000000000000080000000000000200000000000,
|
|
500000000000000000000080000000000000200000000000,
|
|
100000000000000000000000100000000000200000000000,
|
|
100000000000000000100000100000000000200000000000,
|
|
100000000000000000100000100000000000200000000000,
|
|
100000000000000000100000100000000000200000000000,
|
|
100000000000000000100000100000000000200000000000,
|
|
100000000000100000000000100000000000100000000000,
|
|
200000000000200000000000200000000000200000000000,
|
|
100000000000100000000000300000000000100000000000,
|
|
300000000000100000000000300000000000000000000000,
|
|
200000200000200000200000000000000000000000000000,
|
|
000000000000100000000000000000000000100000000000,
|
|
000000000000100000000000100000000000100000000000,
|
|
000000000000100000000000000000000000100000000000,
|
|
000000000000100000000000400000000000400000000000,
|
|
000000000000100000000000000000000000100000000000,
|
|
000000000000100000000000100000000000100000000000,
|
|
000000000000100000000000000000000000100000000000,
|
|
000000600000000000000000000000000080000000000000,
|
|
000000000000100000000000000000000000100000000000,
|
|
000000000000100000000000100000000000100000000000,
|
|
000000000000100000000000000000000000100000000000,
|
|
000000000000100000000000400000000000400000000000,
|
|
000000000000100000000000000000000000100000000000,
|
|
000000000000100000000000100000000000100000000000,
|
|
000000000000100000000000000000000000100000000000,
|
|
000000000000100000000000100000000000100000000000,
|
|
#GOGOSTART
|
|
300000000000300000000000300000000000400000000000,
|
|
300000000000300000000000300000000000400000000000,
|
|
300000000000300000000000300000000000400000000000,
|
|
300000000000300000000000300000000000400000000000,
|
|
300000000000300000000000300000000000400000000000,
|
|
300000000000300000000000300000000000400000000000,
|
|
600000000000000000000000000000000080000000000000,
|
|
#GOGOEND
|
|
000000000000000000000000000000000000000000000000,
|
|
#GOGOSTART
|
|
300000000000400000000000300000000000400000000000,
|
|
300000000000400000000000300000000000300000000000,
|
|
300000000000400000000000300000000000400000000000,
|
|
300000000000400000000000300000000000300000000000,
|
|
300000000000400000000000300000000000400000000000,
|
|
300000000000400000000000300000000000300000000000,
|
|
600000000000000000000000000000000080000000000000,
|
|
300000300000300000000000300000300000300000300000,
|
|
#GOGOEND
|
|
|
|
|
|
#END
|
|
|
|
|
|
COURSE:Easy
|
|
LEVEL:3
|
|
BALLOON:4
|
|
SCOREINIT:510
|
|
SCOREDIFF:153
|
|
|
|
|
|
#START
|
|
|
|
|
|
000000000000100000000000000000000000100000000000,
|
|
000000000000100000000000100000000000100000000000,
|
|
000000000000100000000000000000000000100000000000,
|
|
000000000000100000000000400000000000400000000000,
|
|
000000000000100000000000000000000000100000000000,
|
|
000000000000100000000000100000000000100000000000,
|
|
000000000000100000000000000000000000100000000000,
|
|
000000000000100000000000100000000000100000000000,
|
|
#GOGOSTART
|
|
300000000000000000000000300000000000000000000000,
|
|
300000000000000000000000300000000000000000000000,
|
|
300000000000000000000000300000000000000000000000,
|
|
300000000000000000000000300000000000000000000000,
|
|
300000000000000000000000300000000000000000000000,
|
|
300000000000000000000000300000000000000000000000,
|
|
600000000000000000000000000000000080000000000000,
|
|
300000000000300000000000300000000000400000000000,
|
|
#GOGOEND
|
|
000000000000000000000000200000000000000000000000,
|
|
000000000000000000000000200000000000000000000000,
|
|
000000000000000000000000200000000000000000000000,
|
|
000000000000000000000000200000000000000000000000,
|
|
400000000000000000000000200000000000000000000000,
|
|
400000000000000000000000200000000000000000000000,
|
|
400000000000000000000000200000000000000000000000,
|
|
700000000000000000000000000000800000000000000000,
|
|
100000000000000000000000200000000000000000000000,
|
|
100000000000000000000000200000000000000000000000,
|
|
100000000000000000000000200000000000000000000000,
|
|
100000000000100000000000100000000000000000000000,
|
|
100000000000000000000000200000000000000000000000,
|
|
100000000000000000000000200000000000000000000000,
|
|
100000000000000000000000100000000000000000000000,
|
|
100000000000000000000000000000000000200000000000,
|
|
100000000000000000000000200000000000000000000000,
|
|
100000000000000000000000200000000000000000000000,
|
|
100000000000000000000000200000000000000000000000,
|
|
100000000000100000000000100000000000000000000000,
|
|
100000000000000000000000200000000000000000000000,
|
|
100000000000000000000000200000000000000000000000,
|
|
100000000000000000000000100000000000000000000000,
|
|
100000000000000000000000000000000000000000000000,
|
|
500000000000000000000080000000000000200000000000,
|
|
500000000000000000000080000000000000200000000000,
|
|
500000000000000000000080000000000000200000000000,
|
|
500000000000000000000080000000000000200000000000,
|
|
500000000000000000000080000000000000200000000000,
|
|
500000000000000000000080000000000000200000000000,
|
|
500000000000000000000080000000000000200000000000,
|
|
100000000000000000000000100000000000200000000000,
|
|
500000000000000000000080000000000000200000000000,
|
|
500000000000000000000080000000000000200000000000,
|
|
500000000000000000000080000000000000200000000000,
|
|
500000000000000000000080000000000000200000000000,
|
|
000000000000100000000000000000000000100000000000,
|
|
000000000000200000000000000000000000200000000000,
|
|
100000000000000000000000300000000000000000000000,
|
|
300000000000000000000000300000000000000000000000,
|
|
000000000000000000000000000000000000000000000000,
|
|
000000000000100000000000000000000000100000000000,
|
|
000000000000100000000000100000000000100000000000,
|
|
000000000000100000000000000000000000100000000000,
|
|
000000000000100000000000400000000000400000000000,
|
|
000000000000100000000000000000000000100000000000,
|
|
000000000000100000000000100000000000100000000000,
|
|
000000000000100000000000000000000000100000000000,
|
|
000000600000000000000000000000000080000000000000,
|
|
000000000000100000000000000000000000100000000000,
|
|
000000000000100000000000100000000000100000000000,
|
|
000000000000100000000000000000000000100000000000,
|
|
000000000000100000000000400000000000400000000000,
|
|
000000000000100000000000000000000000100000000000,
|
|
000000000000100000000000100000000000100000000000,
|
|
000000000000100000000000000000000000100000000000,
|
|
000000000000100000000000100000000000100000000000,
|
|
#GOGOSTART
|
|
300000000000000000000000300000000000000000000000,
|
|
300000000000000000000000300000000000000000000000,
|
|
300000000000000000000000300000000000000000000000,
|
|
300000000000000000000000300000000000000000000000,
|
|
300000000000000000000000300000000000000000000000,
|
|
300000000000000000000000300000000000000000000000,
|
|
600000000000000000000000000000000080000000000000,
|
|
#GOGOEND
|
|
000000000000000000000000000000000000000000000000,
|
|
#GOGOSTART
|
|
300000000000000000000000300000000000000000000000,
|
|
300000000000000000000000300000000000000000000000,
|
|
300000000000000000000000300000000000000000000000,
|
|
300000000000000000000000300000000000000000000000,
|
|
300000000000000000000000300000000000000000000000,
|
|
300000000000000000000000300000000000000000000000,
|
|
600000000000000000000000000000000080000000000000,
|
|
300000000000300000000000300000000000300000000000,
|
|
#GOGOEND
|
|
|
|
|
|
#END
|
|
|