301 lines
3.9 KiB
Plaintext
301 lines
3.9 KiB
Plaintext
//TJADB Project
|
|
TITLE:Mappy Ondo
|
|
TITLEJA:マッピー音頭
|
|
SUBTITLE:--Yuri Misumi feat. Ryoko Watanabe/Mappy
|
|
BPM:126
|
|
WAVE:Mappy Ondo.ogg
|
|
OFFSET:-0.838
|
|
DEMOSTART:17.980
|
|
|
|
COURSE:Oni
|
|
LEVEL:7
|
|
BALLOON:18,18,8,8,11,34
|
|
SCOREINIT:860
|
|
SCOREDIFF:200
|
|
|
|
|
|
#START
|
|
|
|
|
|
302011102100,
|
|
301101201222,
|
|
302101112112,
|
|
70000008,
|
|
101101102202,
|
|
101102201102,
|
|
101101102202,
|
|
100200202200,
|
|
200000002000200000000000100100100200200000000000,
|
|
100011100020100020200020,
|
|
100022200020100010200020,
|
|
100011100020100020200050,
|
|
000000000000000000000000000000000008000000000000,
|
|
100011100020100020200020,
|
|
100022200020100010200020,
|
|
100011100020100020200050,
|
|
000000000000000000000000000000000008000000000000,
|
|
100011100010100020200010,
|
|
100011100010100020200010,
|
|
100022200010100000300040,
|
|
,
|
|
|
|
#GOGOSTART
|
|
1011102010112020,
|
|
1122101020112020,
|
|
1011102010112020,
|
|
1022201020222010,
|
|
1022201110222011,
|
|
70000008,
|
|
70087008,
|
|
7082,
|
|
|
|
#GOGOEND
|
|
100011100020100020200020,
|
|
100022200020100010200020,
|
|
100011100020100020200050,
|
|
000000000000000000000000000000000008000000000000,
|
|
100011100020100020200020,
|
|
100022200020100010200020,
|
|
100011100020100020200050,
|
|
000000000000000000000000000000000008000000000000,
|
|
100011100010100020200010,
|
|
100011100010100020200010,
|
|
100022200010100000300040,
|
|
,
|
|
|
|
#GOGOSTART
|
|
100011200020100022200020,
|
|
100022200020100011200020,
|
|
100011200020100022200020,
|
|
100022200020100011200020,
|
|
100011200020100020200020,
|
|
100011200020100020200070,
|
|
,
|
|
000008
|
|
|
|
#GOGOEND
|
|
000000,
|
|
|
|
|
|
#END
|
|
|
|
|
|
COURSE:Hard
|
|
LEVEL:5
|
|
BALLOON:11,33,6,6,8,26
|
|
SCOREINIT:1190
|
|
SCOREDIFF:280
|
|
|
|
|
|
#START
|
|
|
|
|
|
31,
|
|
3021,
|
|
3333,
|
|
70000008,
|
|
101001100200,
|
|
101000200100,
|
|
101001100200,
|
|
12,
|
|
02,
|
|
101001100200,
|
|
101001100200,
|
|
101001100200,
|
|
500000000000000000000000000000000008000000000000,
|
|
101001100200,
|
|
101001100200,
|
|
101001100200,
|
|
500000000000000000000000000000000008000000000000,
|
|
101001102200,
|
|
101001102200,
|
|
100101100404,
|
|
,
|
|
|
|
#GOGOSTART
|
|
1011100010101020,
|
|
1011100010102000,
|
|
1011100010101020,
|
|
1011100010102000,
|
|
07000000,
|
|
00000008,
|
|
70087008,
|
|
7082,
|
|
|
|
#GOGOEND
|
|
101001100200,
|
|
101001100200,
|
|
101001100200,
|
|
500000000000000000000000000000000008000000000000,
|
|
101001100200,
|
|
101001100200,
|
|
101001100200,
|
|
500000000000000000000000000000000008000000000000,
|
|
101001102200,
|
|
101001102200,
|
|
100101100404,
|
|
,
|
|
|
|
#GOGOSTART
|
|
101001100200,
|
|
101001102200,
|
|
101001100200,
|
|
101001102200,
|
|
102001102200,
|
|
102001102209,
|
|
,
|
|
000008
|
|
|
|
#GOGOEND
|
|
000000,
|
|
|
|
|
|
#END
|
|
|
|
|
|
COURSE:Normal
|
|
LEVEL:3
|
|
BALLOON:8,21,18
|
|
SCOREINIT:1080
|
|
SCOREDIFF:300
|
|
|
|
|
|
#START
|
|
|
|
|
|
31,
|
|
32,
|
|
33,
|
|
70000008,
|
|
101000100000,
|
|
101000200000,
|
|
101000100000,
|
|
12,
|
|
02,
|
|
101000100000,
|
|
101000100000,
|
|
101000100200,
|
|
500000000000000000000000000000000008000000000000,
|
|
101000100000,
|
|
101000100000,
|
|
101000100200,
|
|
500000000000000000000000000000000008000000000000,
|
|
1011,
|
|
2011,
|
|
200000200404,
|
|
,
|
|
|
|
#GOGOSTART
|
|
10101110,
|
|
11102220,
|
|
10101110,
|
|
11102220,
|
|
07000000,
|
|
00000008,
|
|
11102220,
|
|
11101020,
|
|
|
|
#GOGOEND
|
|
101000100000,
|
|
101000100000,
|
|
101000100200,
|
|
500000000000000000000000000000000008000000000000,
|
|
101000100000,
|
|
101000100000,
|
|
101000100200,
|
|
500000000000000000000000000000000008000000000000,
|
|
1011,
|
|
2011,
|
|
200000200404,
|
|
,
|
|
|
|
#GOGOSTART
|
|
101000100200,
|
|
101000200200,
|
|
101000100200,
|
|
101000200200,
|
|
101000100100,
|
|
101000200209,
|
|
,
|
|
000008
|
|
|
|
#GOGOEND
|
|
000000,
|
|
|
|
|
|
#END
|
|
|
|
|
|
COURSE:Easy
|
|
LEVEL:2
|
|
BALLOON:14,15
|
|
SCOREINIT:1220
|
|
SCOREDIFF:630
|
|
|
|
|
|
#START
|
|
|
|
|
|
3,
|
|
3,
|
|
33,
|
|
3,
|
|
11,
|
|
1,
|
|
11,
|
|
1,
|
|
2,
|
|
11,
|
|
2,
|
|
11,
|
|
500000000000000000000000000008000000000000000000,
|
|
11,
|
|
2,
|
|
11,
|
|
500000000000000000000000000008000000000000000000,
|
|
11,
|
|
22,
|
|
12,
|
|
,
|
|
|
|
#GOGOSTART
|
|
1110,
|
|
12,
|
|
1110,
|
|
12,
|
|
07000000,
|
|
00000008,
|
|
11,
|
|
1110,
|
|
|
|
#GOGOEND
|
|
11,
|
|
2,
|
|
11,
|
|
500000000000000000000000000008000000000000000000,
|
|
11,
|
|
2,
|
|
11,
|
|
500000000000000000000000000008000000000000000000,
|
|
11,
|
|
22,
|
|
12,
|
|
2,
|
|
|
|
#GOGOSTART
|
|
1110,
|
|
12,
|
|
1110,
|
|
12,
|
|
11,
|
|
100100100009,
|
|
,
|
|
000008
|
|
|
|
#GOGOEND
|
|
000000,
|
|
|
|
|
|
#END
|
|
|