Files
ESE/07 Game Music/Max Fusion/Max Fusion.tja
T
2023-01-17 00:45:18 -05:00

304 lines
11 KiB
Plaintext

//TJADB Project
TITLE:Max Fusion
TITLEJA:マキシフュージョン
SUBTITLE:--Raizo.W feat. Takayoshi Tanimoto/Dragon Ball Fusions
SUBTITLEJA:「ドラゴンボールフュージョンズ」より
BPM:137
WAVE:Max Fusion.ogg
OFFSET:-0.005
DEMOSTART:55.187
COURSE:Oni
LEVEL:7
BALLOON:8
SCOREINIT:860
SCOREDIFF:210
#START
100000000000000000200200200000000000000000000000,
100000000000000000200200200000000000000000000000,
100000000000000000200200200000000000000000000000,
200000000000200000000000100000000000100100100100,
100000000000000000200200200000000000000000000000,
100000000000000000200200200000000000000000000000,
#BPMCHANGE 138.3
100000000000000000200200200000000000000000000000,
#BPMCHANGE 137.5
500000000000000000000000000000000008000000000000,
#BPMCHANGE 137
100000000000100100200000100000000000100100200000,
100000000000100100200000100100200000100000200000,
100000000000100100200000100000000000100100200000,
#BPMCHANGE 136
500000000000000000000000000000000008000000000000,
100000100100100000200000100000100000200000100000,
200000100100100000200000100100100000200000000000,
100000100100100000200000100000100000200000100000,
200000100100100000200000100000200000100000200000,
100000100100100000200000100000100000200000100000,
200000000000200000100000200200100000200000000000,
100000200200100000200000100000100000200000100000,
200000100100200000200000100100100000200000000000,
100000200200100000200000100000100000200000100000,
200000100100200000200000100000200000100000200000,
100000100100100000200000100000100000200000100000,
#BPMCHANGE 136.7
200000000000200000100000200200100000200000000000,
#BPMCHANGE 136
100100100000200000100100200000200000000000100000,
100100100000200000100100200000200000100000200000,
100100100000200000100100200000200000000000100000,
200000100100200000200000100100200000200000100100,
100000000100000000100100100000000100000000100100,
#BPMCHANGE 135
100000200200200000100000100000000000100000000000,
700000000000000000000000000000000800000000300000,
000000300000300000000000000000000000000000000000,
#GOGOSTART
#BPMCHANGE 136
100000000000100100200000100000000000100100200000,
100000000000100100200000100100200000100000200000,
100000000000100100200000100000000000100100200000,
100000000000100100200000100100200200100100200000,
300000000000400000000000400000000000300000000000,
300000000000200000100100100000000100000000100000,
600000000000000000000000000008000000000000300000,
000000300000000000200200100000100100200200200000,
100000000000100100200000100000000000100100200000,
100000000000100100200000100100200000100000200000,
100000000000100100200000100000000000100100200000,
100000000000100100200000100100200200100100200000,
300000000000100000200000100100200000100100200200,
100000100000100000100000100100100100100100100000,
600000000000000000000000000000000000000000000008,
#GOGOEND
#END
COURSE:Hard
LEVEL:5
BALLOON:14
SCOREINIT:900
SCOREDIFF:220
#START
100000000000000000200200200000000000000000000000,
100000000000000000200200200000000000000000000000,
100000000000000000200200200000000000000000000000,
200000000000200000000000100000000000100100100000,
100000000000000000200200200000000000000000000000,
100000000000000000200200200000000000000000000000,
#BPMCHANGE 138.3
100000000000000000200200200000000000000000000000,
#BPMCHANGE 137.5
500000000000000000000000000000000800000000000000,
#BPMCHANGE 137
100000100100100000000000100000100100100000000000,
100000000000100000200000100000200000100000000000,
100000100100100000000000100000100100100000000000,
#BPMCHANGE 136
500000000000000000000000000000000800000000000000,
100000000000100000200000100000100000200000100000,
200000000000100000200000000000000000000000100000,
100000000000100000200000100000100000200000100000,
200000000000100000200000000000200000000000200000,
100000000000000000000000000000000000100000100000,
200000000000200000000000200000000000200000000000,
100000000000100000200000100000100000200000100000,
200000000000100000200000000000000000000000100000,
100000000000100000200000100000100000200000100000,
200000000000100000200000000000200000000000200000,
100000000000000000000000000000000000100000100000,
#BPMCHANGE 136.7
200000000000200000000000200000000000200000000000,
#BPMCHANGE 136
100000000000000000100100100000100000000000100000,
100000000000100000100000000000200000100000200000,
100000000000000000100100100000100000000000100000,
200000000000000000200000100000000000000000100100,
100000000300000000300000300000000300000000300000,
#BPMCHANGE 135
300000000000000000300000300000000000400000000000,
900000000000000000000000000000000000000000000000,
800000000000000000000000000000000000000000000000,
#GOGOSTART
#BPMCHANGE 136
100000000000100100100000100000000000100100100000,
100000000000100000200000100000200000100000200000,
100000000000100100100000100000000000100100100000,
100000000000100000200000100000200000100000200000,
300000000000400000000000400000000000300000000000,
300000000000000000300000300000000300000000300000,
600000000000000000000000000800000000000000300000,
000000300000000000200000200000000000200000000000,
100000000000100100100000100000000000100100100000,
100000000000100000200000100000200000100000200000,
100000000000100100100000100000000000100100100000,
100000000000100000200000100000200000100000200000,
300000000000000000000000000000000000300000000000,
400000000000400000000000300000000000400000000000,
600000000000000000000000000000000000000000000800,
#GOGOEND
#END
COURSE:Normal
LEVEL:4
BALLOON:10
SCOREINIT:960
SCOREDIFF:240
#START
#barlineoff
000000000000000000000000000000000000000000000000,
000000000000000000000000000000000000000000000000,
000000000000000000000000000000000000000000000000,
000000000000000000000000000000000000000000000000,
#barlineon
100000000000000000000000200000000000000000000000,
100000000000000000000000200000000000000000000000,
#BPMCHANGE 138.3
100000000000000000000000200000000000000000000000,
#BPMCHANGE 137.5
500000000000000000000000000000800000000000000000,
#BPMCHANGE 137
100000000000100000100000100000000000100000100000,
500000000000000000000000000000800000000000000000,
100000000000100000100000100000000000100000100000,
#BPMCHANGE 136
500000000000000000000000000000800000000000000000,
100000000000100000000000100000100000100000000000,
100000000000100000100000000000000000000000000000,
100000000000100000000000100000100000100000000000,
100000000000100000100000000000200000000000200000,
200000000000000000000000000000000000200000200000,
200000000000200000000000200000000000200000000000,
100000000000100000000000100000100000100000000000,
100000000000100000100000000000000000000000000000,
100000000000100000000000100000100000100000000000,
100000000000100000100000000000200000000000200000,
200000000000000000000000000000000000200000200000,
#BPMCHANGE 136.7
200000000000200000000000200000000000200000000000,
#BPMCHANGE 136
100000000000000000100000100000100000000000100000,
100000000000100000100000000000200000200000000000,
100000000000000000100000100000100000000000100000,
100000000000000000100000100000000000000000500000,
000000000000000000000000000000800000000000000000,
#BPMCHANGE 135
100000000000000000100000100000000000100000000000,
900000000000000000000000000000000000000000000000,
800000000000000000000000000000000000000000000000,
#GOGOSTART
#BPMCHANGE 136
300000000000100000100000100000000000100000100000,
100000000000100000100000100000100000100000000000,
100000000000100000100000100000000000100000100000,
100000000000100000100000100000100000100000000000,
300000000000400000000000400000000000300000000000,
300000000000000000300000300000000300000000300000,
600000000000000000000000800000000000000000300000,
000000300000000000000000000000000000000000000000,
300000000000100000100000100000000000100000100000,
100000000000100000100000100000100000100000000000,
100000000000100000100000100000000000100000100000,
100000000000100000100000100000100000100000000000,
300000000000000000000000000000000000300000000000,
400000000000400000000000300000000000400000000000,
600000000000000000000000000000000000000000800000,
#GOGOEND
#END
COURSE:Easy
LEVEL:2
BALLOON:5
SCOREINIT:790
SCOREDIFF:270
#START
#barlineoff
000000000000000000000000000000000000000000000000,
000000000000000000000000000000000000000000000000,
000000000000000000000000000000000000000000000000,
000000000000000000000000000000000000000000000000,
#barlineon
100000000000000000000000100000000000000000000000,
100000000000000000000000100000000000000000000000,
#BPMCHANGE 138.3
100000000000000000000000100000000000000000000000,
#BPMCHANGE 137.5
500000000000000000000000800000000000000000000000,
#BPMCHANGE 137
100000000000100000000000100000000000100000000000,
500000000000000000000000800000000000000000000000,
100000000000100000000000100000000000100000000000,
#BPMCHANGE 136
500000000000000000000000800000000000000000000000,
100000000000000000000000100000000000000000000000,
100000000000100000000000000000000000000000000000,
100000000000000000000000100000000000000000000000,
200000000000200000000000000000000000000000000000,
100000000000000000000000000000000000000000000000,
100000000000100000000000100000000000100000000000,
100000000000000000000000100000000000000000000000,
100000000000100000000000000000000000000000000000,
100000000000000000000000100000000000000000000000,
200000000000200000000000000000000000000000000000,
100000000000000000000000000000000000000000000000,
#BPMCHANGE 136.7
100000000000100000000000100000000000100000000000,
#BPMCHANGE 136
100000000000000000000000100000000000100000000000,
100000000000000000000000000000000000000000000000,
100000000000000000000000100000000000100000000000,
100000000000000000000000000000000000000000500000,
000000000000000000000000800000000000000000000000,
#BPMCHANGE 135
100000000000000000000000100000000000100000000000,
900000000000000000000000000000000000000000000000,
800000000000000000000000000000000000000000000000,
#GOGOSTART
#BPMCHANGE 136
300000000000300000000000300000000000300000000000,
300000000000000000000000000000000000000000000000,
300000000000300000000000300000000000300000000000,
300000000000000000000000000000000000000000000000,
300000000000300000000000300000000000300000000000,
300000000000000000000000200000000000200000000000,
600000000000000000800000000000000000000000300000,
000000000000000000000000000000000000000000000000,
300000000000300000000000300000000000300000000000,
300000000000000000000000200000000000200000000000,
300000000000300000000000300000000000300000000000,
300000000000000000000000200000000000200000000000,
300000000000000000000000000000000000300000000000,
300000000000300000000000300000000000300000000000,
600000000000000000000000000000000000000000000008,
#GOGOEND
#END