Files
ESE/07 Game Music/Mythmaker/Mythmaker.tja
T
2023-06-15 19:15:39 -05:00

307 lines
12 KiB
Plaintext
Raw Blame History

This file contains ambiguous Unicode characters
This file contains Unicode characters that might be confused with other characters. If you think that this is intentional, you can safely ignore this warning. Use the Escape button to reveal them.
//TJADB Project
TITLE:Mythmaker
TITLEJA:Mythmaker
SUBTITLE:--Linda AI-CUE feat. Chiaki Takahashi/THE iDOLM@STER MUST SONGS: Red Album
BPM:114
WAVE:Mythmaker.ogg
OFFSET:-2.302
DEMOSTART:69.669
COURSE:Oni
LEVEL:8
SCOREINIT:650
SCOREDIFF:173
#START
000000000000000000000000000000000000000000000000,
000000000000000000000000000000000000000000000000,
200000100000200200000200000100000100100000200000,
200000100000200200000200000100000100200200200200,
100000100000200100000200000100000100100000200000,
200000100000200100000200000100000100200200200200,
100000100000200100000200000100000100100000200000,
100100000100200100100200000100100100200200200200,
100000100100200100100000200000100000100000200000,
100000100100200100100000200000100000200200200000,
100000000100200000000100000100000100200200200000,
200100100100200000100100000100000100200200200200,
100000100100200100100000200000100000100000200000,
100000100100200100100000200000100100200000200000,
100000200200200000000000200200200000200000100000,
100000000000100000200000200200200200200200202020,
100000100100200100100000200000100000100000200000,
100000100100200100100000200000100000200200200000,
100000000100200000000100000100000100200200200000,
200100100100200000100100000100000100200200200200,
100000100100200100100000200000100000100000200000,
100000100100200100100000200000100100200000200000,
100000200200200000000000200200200000200000100000,
100200200200100200200200102020200200200200202020,
100000100100200100100000200000100000100000000000,
100000100100200100100000200000100000200200200200,
100000000000100000200000200200000200200200000200,
200200000200000200200000200200200000200200200200,
100000100100200100100000200000100000100000000000,
100000100100200100100000200000100000200200200200,
100000200000200000200000200200000200200200100000,
100200200200100200200200101010100200200200202020,
100000100100200000000200100100100000000000200000,
200000100000200000200100000100200000200200200200,
100000100100200000000200100100100000000000200000,
200000100000200200100200000200200000100200200200,
100000100100200000000200100100100000000000200000,
200000100000200200000200000100200000200200200200,
100000200000200200000100200200000100200200200200,
100000000000000000000000000000000000000000000000,
#GOGOSTART
100000000000200000000000000000200000000000000000,
200000000000200000200000000000200000200000000000,
100000000000200000000000000000200000000000000000,
200000000000000000200000000000200000200000000000,
100100100000100000000100000000100000100000100100,
200000200000100000100000000000200000100000000000,
100100000000100000200000000000200000200000200200,
100000000100000000000000000000100000000000000000,
100200000000200000000100000100200000200000000000,
100000000000200000100000000100100000200200200200,
100200000000200000000100000200100000200000000000,
100000000100200000100000000100200000100000200200,
100200000000200000100200000200100000200000000000,
100000000000200000000000000100000000200200200200,
100200000000200000000100000200100000200000000000,
100000000100200000000000000100200000200200200200,
#GOGOEND
100100000000100000000000000000100000200000000000,
100000000100000000000000000100000000200000200000,
#END
COURSE:Hard
LEVEL:6
SCOREINIT:1040
SCOREDIFF:320
#START
000000000000000000000000000000000000000000000000,
000000000000000000000000000000000000000000000000,
200000000000200000000200000000000000000000000000,
200000000000200000000200000000000000000000000000,
100000100000100100000100000100000100100000000000,
100000100000100100000100000100000100100000100000,
100000100000100100000100000100000100100000100000,
000000000000200000000000000000000000200000000000,
100000100100000100100000000000100000100000000000,
100000100100000100100000000000100000200000200000,
100000000100000000000000000000000000000000000000,
000000000000000000000000000000000000000000000000,
100000100100000100100000000000100000100000000000,
100000100100000100100000000000100000100000100000,
000000200000200000000000200000200000000000100000,
100000000000100000000000200000000000200000000000,
100000100100000100100000000000100000100000000000,
100000100100000100100000000000100000200000200000,
100000000100000000000000000000000000000000000000,
000000000000000000000000000000000000000000000000,
100000100100000100100000000000100000100000000000,
100000100100000100100000000000100000100000100000,
000000200000200000000000200000200000000000100000,
100000000000100000000000200000000000200000000000,
100000100100000100100000000000100000100000000000,
100000100100000100100000000000100000200000200000,
100000000000100000000000000000000000000000000000,
000000000000000000000000000000000000000000000000,
100000100100000100100000000000100000100000000000,
100000100100000100100000000000100000100000100000,
000000200000200000000000200000200000000000100000,
100000000000200000000000200000000000200000000000,
100000100100100000000000100100100000000000200000,
200000000000200000200200000000200000200000000000,
000000100100100000000000100100100000000000200000,
200000000000200000200200000000200000200000200000,
000000100100100000000000100100100000000000200000,
200000000000200200000200000000200000200000000000,
500000000000000000000000000000000000000800000000,
300000000000000000000000000000000000000000000000,
#GOGOSTART
100000000000200000000000000000200000000000000000,
200000000000200000200000000000200000200000000000,
100000000000200000000000000000200000000000000000,
200000000000000000200000000000200000200000000000,
000000100000100000000100000000100000100000100000,
200000200000100000100000000000000000100000000000,
500000000000000000000000000000000000000000000000,
000000000000000000000000000000000000000800000000,
000000000000200000000000000000200000200000000000,
100000000000100000100000000000100000100000000000,
000000000000200000000000000000200000200000000000,
100000000000100000100000000000100000100000000000,
500000000000000000000000000000000000000000000000,
000000000000000000800000000000000000300000000000,
600000000000000000000000000000000000000000000000,
000000000000000000000000000000000000000000800000,
#GOGOEND
000000000000000000000000000000000000200000000000,
000000000000000000000000000000000000200000200000,
#END
COURSE:Normal
LEVEL:5
SCOREINIT:1050
SCOREDIFF:368
#START
000000000000000000000000000000000000000000000000,
000000000000000000000000000000000000000000000000,
200000000000200000000000000000000000000000000000,
200000000000200000000000000000000000000000000000,
100000100000100000000000000000000000100000000000,
100000100000100000000000000000000000100000000000,
100000100000100000000000000000000000100000000000,
000000000000200000000000000000000000200000000000,
100000000000100000100000000000100000100000000000,
100000000000100000100000000000100000100000000000,
100000000000000000000000000000000000000000000000,
000000000000000000000000000000000000000000000000,
100000000000100000100000000000100000100000000000,
100000000000100000100000000000100000100000000000,
000000200000200000000000200000200000000000100000,
100000000000100000000000200000000000200000000000,
100000000000100000100000000000100000100000000000,
100000000000100000100000000000100000100000000000,
100000000000000000000000000000000000000000000000,
000000000000000000000000000000000000000000000000,
100000000000100000100000000000100000100000000000,
100000000000100000100000000000100000100000000000,
000000200000200000000000200000200000000000100000,
100000000000100000000000200000000000200000000000,
100000000000100000100000000000100000100000000000,
100000000000100000100000000000100000100000000000,
200000000000200000000000000000000000000000000000,
000000000000000000000000000000000000000000000000,
100000000000100000100000000000100000100000000000,
100000000000100000100000000000100000100000100000,
000000100000100000000000100000100000000000100000,
100000000000200000000000200000000000200000000000,
100000100000100000000000100000000000000000200000,
200000000000200000000200000000200000200000000000,
000000100000100000000000100000000000000000200000,
200000000000200000200000000000200000200000200000,
000000100000100000000000100000100000000000200000,
200000000000200000000200000000200000200000000000,
500000000000000000000000000000000000000800000000,
300000000000000000000000000000000000000000000000,
#GOGOSTART
100000000000000000000000000000000000000000000000,
200000000000200000200000000000200000200000000000,
100000000000000000000000000000000000000000000000,
200000000000000000200000000000200000200000000000,
100000000000100000000000000000100000100000000000,
100000000000100000000000000000100000100000000000,
500000000000000000000000000000000000000000000000,
000000000000000000000000000000000000800000000000,
000000000000200000000000000000200000200000000000,
100000000000100000100000000000100000100000000000,
000000000000200000000000000000200000200000000000,
100000000000100000100000000000100000100000000000,
500000000000000000000000000000000000000000000000,
000000000000000000800000000000000000300000000000,
600000000000000000000000000000000000000000000000,
000000000000000000000000000000000000000000800000,
#GOGOEND
000000000000000000000000000000000000200000000000,
000000000000000000000000000000000000200000200000,
#END
COURSE:Easy
LEVEL:3
SCOREINIT:910
SCOREDIFF:420
#START
000000000000000000000000000000000000000000000000,
000000000000000000000000000000000000000000000000,
200000000000200000000000000000000000000000000000,
200000000000200000000000000000000000000000000000,
100000000000100000000000000000000000100000000000,
100000000000100000000000000000000000100000000000,
100000000000100000000000000000000000100000000000,
000000000000000000000000000000000000000000000000,
100000000000100000000000000000000000100000000000,
100000000000100000000000000000000000100000000000,
100000000000000000000000000000000000000000000000,
000000000000000000000000000000000000000000000000,
100000000000100000000000000000000000100000000000,
100000000000100000000000000000000000100000000000,
000000000000200000000000000000000000200000000000,
100000000000100000000000200000000000200000000000,
100000000000100000000000000000000000100000000000,
100000000000100000000000000000000000100000000000,
100000000000000000000000000000000000000000000000,
000000000000000000000000000000000000000000000000,
100000000000100000000000000000000000100000000000,
100000000000100000000000000000000000100000000000,
000000000000200000000000000000000000200000000000,
100000000000100000000000200000000000200000000000,
100000000000100000000000000000000000100000000000,
100000000000100000000000000000000000100000000000,
200000000000200000000000000000000000000000000000,
000000000000000000000000000000000000000000000000,
100000000000100000000000000000000000100000000000,
100000000000100000000000000000000000100000000000,
100000000000100000000000100000000000000000000000,
100000000000200000000000200000000000200000000000,
100000000000100000000000100000000000000000000000,
200000000000200000000000200000000000200000000000,
000000000000100000000000100000000000000000000000,
200000000000200000000000200000000000200000000000,
100000000000100000000000100000000000000000000000,
200000000000200000000000200000000000200000000000,
500000000000000000000000000000000000800000000000,
300000000000000000000000000000000000000000000000,
#GOGOSTART
100000000000000000000000000000000000000000000000,
200000000000000000000000000000000000000000000000,
100000000000000000000000000000000000000000000000,
200000000000000000000000000000000000000000000000,
100000000000100000000000000000000000100000000000,
100000000000100000000000000000000000100000000000,
500000000000000000000000000000000000000000000000,
000000000000000000000000000000000000800000000000,
000000000000200000000000000000000000200000000000,
100000000000100000000000000000000000100000000000,
000000000000200000000000000000000000200000000000,
100000000000100000000000000000000000100000000000,
500000000000000000000000000000000000000000000000,
000000000000000000800000000000000000300000000000,
600000000000000000000000000000000000000000000000,
000000000000000000000000000000000000000000800000,
#GOGOEND
000000000000000000000000000000000000200000000000,
000000000000000000000000000000000000200000200000,
#END