422 lines
5.4 KiB
Plaintext
422 lines
5.4 KiB
Plaintext
//TJADB Project
|
|
TITLE:Naked Glow
|
|
TITLEJA:Naked Glow
|
|
SUBTITLE:--Kohta Takahashi/R4 -RIDGE RACER TYPE4-
|
|
SUBTITLEJA:「R4 -RIDGE RACER TYPE4-」より
|
|
BPM:133.05
|
|
WAVE:Naked Glow.ogg
|
|
OFFSET:-2.085
|
|
DEMOSTART:3.888
|
|
|
|
COURSE:Oni
|
|
LEVEL:9
|
|
BALLOON:22,15
|
|
SCOREINIT:420
|
|
SCOREDIFF:100
|
|
|
|
|
|
#START
|
|
|
|
|
|
2210102212020000,
|
|
1021102101210122,
|
|
1021102212012022,
|
|
1021102101210122,
|
|
1021102212012022,
|
|
1021102101210122,
|
|
1021102212012022,
|
|
1021102101210122,
|
|
1,
|
|
1021102101210122,
|
|
1021102212012022,
|
|
1021102101210122,
|
|
1021102212012022,
|
|
1021102101210122,
|
|
1021102212012022,
|
|
1021102101210122,
|
|
10000400,
|
|
1011210011212000,
|
|
0040040040000000,
|
|
1011210011210010,
|
|
0030030400000000,
|
|
1011210011210020,
|
|
0010120120000000,
|
|
1011210011212000,
|
|
1020120120000000,
|
|
1101201100221200,
|
|
1001201001202200,
|
|
1101201100221200,
|
|
1001201001202200,
|
|
1202021202122122,
|
|
1001201001202200,
|
|
1202120202122122,
|
|
1,
|
|
1010210101012000,
|
|
1010221102020000,
|
|
1010210101012000,
|
|
1010221101020200,
|
|
1010210102012000,
|
|
1010221102020102,
|
|
1010210102012000,
|
|
1010221101020102,
|
|
1011202212012012,
|
|
1110202212020212,
|
|
1011202212012212,
|
|
1112020211120202,
|
|
1011202212012212,
|
|
1110202112020212,
|
|
1102020101020070,
|
|
,
|
|
8,
|
|
1021102101210122,
|
|
1021102212212022,
|
|
1021102101210122,
|
|
1021102212212022,
|
|
1021102101210122,
|
|
1021102212212022,
|
|
1021102101210122,
|
|
1000000022101020,
|
|
|
|
#GOGOSTART
|
|
1010210210102212,
|
|
1012012011120200,
|
|
1010210210102210,
|
|
1212112011020200,
|
|
1010210210102210,
|
|
1012012011120200,
|
|
1010210210102210,
|
|
1212112011020200,
|
|
1010220210102022,
|
|
1010221211010122,
|
|
1010220210102212,
|
|
1022120012010220,
|
|
1010220210102022,
|
|
1010221211010122,
|
|
1010220210102212,
|
|
1020120022101202,
|
|
1010120210122210,
|
|
|
|
#GOGOEND
|
|
7008,
|
|
1021102101210122,
|
|
1021102212212122,
|
|
1021102101210122,
|
|
1021102212212122,
|
|
1021102101210122,
|
|
1021102212212122,
|
|
1021102101210122,
|
|
10000400,
|
|
|
|
|
|
#END
|
|
|
|
|
|
COURSE:Hard
|
|
LEVEL:7
|
|
BALLOON:11
|
|
SCOREINIT:450
|
|
SCOREDIFF:115
|
|
|
|
|
|
#START
|
|
|
|
|
|
,
|
|
1001102201010201,
|
|
1000000022022000,
|
|
1001102201010201,
|
|
1000000022022000,
|
|
1001102201010201,
|
|
1000000022022000,
|
|
1001102201010201,
|
|
1,
|
|
1001102201010201,
|
|
1020002022022000,
|
|
1001102201010201,
|
|
1020002022022000,
|
|
1001102201010201,
|
|
1020002022022000,
|
|
1001102201010201,
|
|
10000400,
|
|
1011110022222000,
|
|
0040040040000000,
|
|
1011110022220010,
|
|
0030030300000000,
|
|
1011110022220010,
|
|
0030030040000000,
|
|
1011110022222000,
|
|
2020110220000000,
|
|
1102201100222200,
|
|
1002001002002000,
|
|
1102201100222200,
|
|
1002001002002000,
|
|
1022022022022220,
|
|
1002001002002000,
|
|
1022022022022220,
|
|
1,
|
|
1010110101010000,
|
|
1010111102020000,
|
|
1010110101010000,
|
|
1010111101020000,
|
|
1010110101010000,
|
|
1010111102020000,
|
|
1010110101010000,
|
|
1010111101020000,
|
|
1010201102011000,
|
|
1010201102022000,
|
|
1010201102011000,
|
|
1001010020020200,
|
|
1010201102011000,
|
|
1010201102022000,
|
|
1102020101020050,
|
|
000000000000000000000000000000000008000000000000,
|
|
,
|
|
1001102201010201,
|
|
1020002022022020,
|
|
1001102201010201,
|
|
1020002022022020,
|
|
1001102201010201,
|
|
1020002022022020,
|
|
1001102201010101,
|
|
1,
|
|
|
|
#GOGOSTART
|
|
1010010010000000,
|
|
0010010022220200,
|
|
1010010010000000,
|
|
0010010011020200,
|
|
1010010010000000,
|
|
0010010022220200,
|
|
1010010010000000,
|
|
0010010011020200,
|
|
1010222010102020,
|
|
1010222011020200,
|
|
1010222010102020,
|
|
1011110022020220,
|
|
1010222010102020,
|
|
1010222011010100,
|
|
1010222010102020,
|
|
1010110022202201,
|
|
1010110110222220,
|
|
|
|
#GOGOEND
|
|
7008,
|
|
1001102201010201,
|
|
1020002012012020,
|
|
1001102201010201,
|
|
1020002012012020,
|
|
1001102201010201,
|
|
1020002012012020,
|
|
1001102201020101,
|
|
10000400,
|
|
|
|
|
|
#END
|
|
|
|
|
|
COURSE:Normal
|
|
LEVEL:6
|
|
BALLOON:22,8,8
|
|
SCOREINIT:700
|
|
SCOREDIFF:203
|
|
|
|
|
|
#START
|
|
|
|
|
|
,
|
|
1212,
|
|
11,
|
|
1212,
|
|
12,
|
|
1212,
|
|
11,
|
|
1212,
|
|
1,
|
|
1212,
|
|
11,
|
|
1212,
|
|
12,
|
|
1212,
|
|
11,
|
|
1212,
|
|
10000400,
|
|
01102220,
|
|
0040040040000000,
|
|
01102220,
|
|
0030030300000000,
|
|
01102220,
|
|
0030030040000000,
|
|
01102220,
|
|
11104000,
|
|
1001001000000000,
|
|
1002001002001000,
|
|
1001002000000000,
|
|
1002001002001000,
|
|
1001001000000000,
|
|
1002001002001000,
|
|
1001002000000000,
|
|
1,
|
|
1000100101010000,
|
|
1000100202020000,
|
|
1000100101010000,
|
|
1000100202020000,
|
|
1000100101010000,
|
|
1000100202020000,
|
|
1000100101010000,
|
|
1000100202020000,
|
|
1000100001001000,
|
|
1000100002002000,
|
|
500000000000000000000000000000000008000000000000,
|
|
34,
|
|
1000100001001000,
|
|
1000100002002000,
|
|
9,
|
|
,
|
|
8,
|
|
1212,
|
|
11,
|
|
1212,
|
|
12,
|
|
1212,
|
|
11,
|
|
1212,
|
|
1,
|
|
|
|
#GOGOSTART
|
|
1010010010000000,
|
|
0010010010000000,
|
|
1010010010000000,
|
|
04,
|
|
1010010010000000,
|
|
500000000000000000000000000000000008000000000000,
|
|
1010010010000000,
|
|
7008,
|
|
11201120,
|
|
11203000,
|
|
11201120,
|
|
11102000,
|
|
11201120,
|
|
11203000,
|
|
11201120,
|
|
11102000,
|
|
11102020,
|
|
|
|
#GOGOEND
|
|
7008,
|
|
1212,
|
|
11,
|
|
1212,
|
|
12,
|
|
1212,
|
|
11,
|
|
1212,
|
|
30000400,
|
|
|
|
|
|
#END
|
|
|
|
|
|
COURSE:Easy
|
|
LEVEL:4
|
|
BALLOON:18,6,6
|
|
SCOREINIT:550
|
|
SCOREDIFF:170
|
|
|
|
|
|
#START
|
|
|
|
|
|
,
|
|
1110,
|
|
11,
|
|
1110,
|
|
12,
|
|
1110,
|
|
11,
|
|
1110,
|
|
1,
|
|
1111,
|
|
11,
|
|
1111,
|
|
12,
|
|
1111,
|
|
11,
|
|
1111,
|
|
14,
|
|
10010010,
|
|
0040040040000000,
|
|
10010010,
|
|
000000600000000000000000000008000000000000000000,
|
|
10010010,
|
|
0030030030000000,
|
|
10010010,
|
|
3340,
|
|
1001001000000000,
|
|
10010000,
|
|
1001001000000000,
|
|
20020000,
|
|
1001001000000000,
|
|
10010000,
|
|
1001001000000000,
|
|
1,
|
|
1100,
|
|
1200,
|
|
1100,
|
|
1200,
|
|
1100,
|
|
1200,
|
|
1100,
|
|
1200,
|
|
10110000,
|
|
20220000,
|
|
500000000000000000000000000008000000000000000000,
|
|
34,
|
|
10110000,
|
|
20220000,
|
|
9,
|
|
,
|
|
8,
|
|
1111,
|
|
11,
|
|
1111,
|
|
12,
|
|
1111,
|
|
11,
|
|
1111,
|
|
1,
|
|
|
|
#GOGOSTART
|
|
11001000,
|
|
03,
|
|
11001000,
|
|
04,
|
|
11001000,
|
|
500000000000000000000000000008000000000000000000,
|
|
11001000,
|
|
7008,
|
|
1011,
|
|
1,
|
|
12,
|
|
1120,
|
|
1011,
|
|
1,
|
|
12,
|
|
1120,
|
|
1122,
|
|
|
|
#GOGOEND
|
|
7008,
|
|
1212,
|
|
11,
|
|
1212,
|
|
12,
|
|
1212,
|
|
11,
|
|
1212,
|
|
30000400,
|
|
|
|
|
|
#END
|
|
|