Files
ESE/07 Game Music/Opposed Viewpoint/Opposed Viewpoint.tja
T
2023-01-17 00:45:18 -05:00

454 lines
5.2 KiB
Plaintext

//TJADB Project
TITLE:Opposed Viewpoint
TITLEJA:相容れぬ念い
SUBTITLE:--Hayato Takeda/SCARLET NEXUS
SUBTITLEJA:「SCARLET NEXUS」より
BPM:170
WAVE:Opposed Viewpoint.ogg
OFFSET:-1.534
DEMOSTART:77.761
COURSE:Oni
LEVEL:8
BALLOON:30
SCOREINIT:1570
SCOREDIFF:0
#START
33000003,
03000000,
2,
00022212,
1011101010101011,
11112212,
1011101010101011,
11112212,
1011101010101011,
11112212,
1011101010101011,
1010202010102222,
2011102010102011,
1020101022201020,
2011102010102011,
1020101022201020,
2011102010102011,
1020101022201020,
2011102010102011,
12121122,
1000201110102010,
01201120,
1110201000102010,
0010201120102020,
1000201110102000,
11201120,
1110201000102011,
1110102000202000,
1020201110102010,
01221120,
1110201000202210,
1010201110202020,
10210120,
11201120,
1110201000102020,
1110202011102020,
11011011,
01102120,
11011011,
0010102222111110,
1110222011102220,
2010100010222050,
000000000000000000000000000000000008000000600000,
000000000000000000000000000000000000000008000000,
10102001,
1122,
10102022,
11102110,
7,
00000008,
22001100,
20200022,
10020001,
4030304030302210,
#GOGOSTART
1000201110102010,
1000201110102050,
000000000000000000000000000000000008000000100000,
0010201020102022,
1000201110102010,
1000201110102050,
000000000000000000000000000000000008000000100100,
1010202210102000,
1020201110201020,
1020201110102060,
000000000000000000000000000000000008000000100000,
01223030,
1020201110201020,
1010222030004000,
1010201120102011,
2010201022102000,
2011102011102010,
2011102011102211,
2011102011102210,
1111201030002222,
1010201110102022,
1010201110102210,
1110222011104000,
0000102220102010,
111222111222,
111222111222,
1000102220020020,
10111111,
#GOGOEND
#BPMCHANGE 169.7
#SCROLL 1.00176782557
12200022,
12200212,
1020202010222020,
1122,
12020020,
10220222,
10220012,
2,
#END
COURSE:Hard
LEVEL:6
BALLOON:9,22,25
SCOREINIT:2530
SCOREDIFF:0
#START
33000003,
03000000,
2,
00022220,
10010010,
01001111,
10010010,
01001111,
10010010,
01001111,
10010010,
01101122,
11011011,
01101122,
11011011,
01101122,
11011011,
01101122,
11011011,
7008,
10210121,
01201120,
11110121,
0010101110101000,
10210120,
10201120,
11210120,
1110102000200000,
5,
,
000000000000000000000000000000000000000000000008,
00210222,
10210120,
10201120,
11210121,
1110100022202000,
11011011,
01101020,
11011011,
0010100011101000,
11011011,
01101022,
11011022,
0020200011102000,
10102001,
1122,
10102022,
1120,
7,
00000008,
22002200,
20200022,
10020000,
43343340,
#GOGOSTART
10210121,
10210125,
,
000000000000000000000000000000000000000008000000,
10210121,
10210125,
000000000000000000000000000000000008000000000000,
11201120,
10210212,
10210216,
,
000000000000000000000000000000000000000008000000,
10210212,
1233,
1000201110002011,
1212,
9,
,
8,
0033,
11210122,
11210122,
11221230,
00102121,
100100200111,
100100200111,
1000102010020020,
10111110,
#GOGOEND
#BPMCHANGE 169.7
#SCROLL 1.00176782557
12200022,
12200212,
12201022,
1122,
12020020,
10220222,
10220012,
2,
#END
COURSE:Normal
LEVEL:5
BALLOON:6,13,18
SCOREINIT:4000
SCOREDIFF:0
#START
33000003,
03000000,
2,
,
10010010,
01001010,
10010010,
01001010,
10010010,
01001010,
10010010,
01001010,
10010010,
01001111,
10010010,
01001111,
10010010,
01001111,
10010010,
7008,
10000011,
0001,
11110001,
00011010,
1001,
11,
11110000,
10010100,
5,
,
000000000000000000000000000000000000000000000008,
00010222,
2002,
12,
22220000,
1122,
11011011,
01101000,
11011011,
01101110,
11011011,
01101000,
11011022,
02201110,
10002001,
1022,
10002011,
12,
7,
00000008,
22,
2202,
10010000,
30030030,
#GOGOSTART
10010011,
10010015,
,
000000000000000000000000000000000000000008000000,
10010011,
10010015,
000000000000000000000000000000000008000000000000,
1212,
10020011,
10020016,
,
000000000000000000000000000000000000000008000000,
10020011,
1233,
10011001,
1122,
9,
,
8,
0033,
10010101,
10010101,
1223,
0022,
1120,
1120,
1122,
10101110,
#GOGOEND
#BPMCHANGE 169.7
#SCROLL 1.00176782557
2200,
2200,
22,
2220,
20020000,
20220000,
20220000,
2,
#END
COURSE:Easy
LEVEL:4
BALLOON:4,12,14
SCOREINIT:7020
SCOREDIFF:0
#START
30000003,
03000000,
2,
,
1001,
01,
1001,
01,
1001,
01,
1001,
01,
10010010,
0011,
10010010,
0011,
10010010,
0011,
10010010,
7008,
10000001,
,
1100,
01,
1001,
11,
1100,
10010000,
5,
,
000000000000000000000000000000000000000000000008,
,
1,
11,
2200,
1110,
10010010,
01,
10010010,
01,
10010010,
01,
10010010,
01,
12,
12,
12,
11,
7,
00000008,
2,
2,
1,
30030030,
#GOGOSTART
10010000,
10010050,
,
000000000000000000000000000008000000000000000000,
10010000,
10010050,
000000000000000000000000000000000008000000000000,
1110,
10020000,
10020060,
,
000000000000000000000000000000000000000008000000,
10020000,
1033,
11,
1111,
9,
,
8,
0033,
10010000,
10010000,
1113,
0011,
12,
12,
12,
1,
#GOGOEND
#BPMCHANGE 169.7
#SCROLL 1.00176782557
2,
2,
22,
2220,
2,
2,
2,
2,
#END