358 lines
14 KiB
Plaintext
358 lines
14 KiB
Plaintext
//TJADB Project
|
||
TITLE:Otome yo Taishi o Idake‼
|
||
TITLEJA:FIXME
|
||
SUBTITLE:--Yusuke Shirato feat. Eriko Nakamura/THE iDOLM@STER SHINY FESTA: Honey Sound
|
||
BPM:148
|
||
WAVE:Otome yo Taishi o Idake!!.ogg
|
||
OFFSET:-1.907
|
||
DEMOSTART:81.364
|
||
|
||
COURSE:Oni
|
||
LEVEL:7
|
||
BALLOON:8
|
||
SCOREINIT:590
|
||
SCOREDIFF:158
|
||
NOTESDESIGNER3:Kuboken
|
||
|
||
|
||
#START
|
||
|
||
|
||
100100200200200200100100200200100100200200100100,
|
||
100000100000200000100000000000100000200000100000,
|
||
000000100000200000100000300000000000300000000000,
|
||
100000100000200000100000000000100000200000100000,
|
||
000000100000200000100000300000000000300000000000,
|
||
100000200200200000100000200200200000100000200200,
|
||
200000100000200200200000100000000000500000000000,
|
||
000000000000000000000000000000000008000000000000,
|
||
|
||
#GOGOSTART
|
||
300000000300000000300000000000000000000000000000,
|
||
100000100000200000100000000000100000200000100000,
|
||
100100100000200000100100100000400000400000100000,
|
||
100000200000200000000000100000100000200000100000,
|
||
100100100000200200200000100100100000200200200000,
|
||
100000100000200000100000000000100000200000100000,
|
||
100100100000200000100100100000400000400000100000,
|
||
100000200000200000000000100000200000200000100000,
|
||
100000000000200000100100100000200000200000200200,
|
||
100000200000100000200000100100100000200200200000,
|
||
300000300000300000300000300000000000400000000000,
|
||
|
||
#GOGOEND
|
||
000000000000000000000000000000000000000000000000,
|
||
000000000000000000000000300000000000300000000000,
|
||
000000000000000000000000000000000000000000000000,
|
||
000000000000700000000000000000000000800000000000,
|
||
100000000000200000100000100000000000200000100000,
|
||
100000100000200000000000100000000000000000000000,
|
||
100000000000200000100000100000000000200000100000,
|
||
100000100000200000000000100000000000000000000000,
|
||
100000000000200000100000200000000000200000000000,
|
||
100000000000200000100000100000000000000000100000,
|
||
100100100000100000100000100000000000000000200000,
|
||
200000200200200000200000200000000000000000000000,
|
||
100000000000200000100000100000000000200000100000,
|
||
100000100000200200200200100000000000000000000000,
|
||
100000000000200000100000100000000000200000100000,
|
||
100000200000100100100100200000000000200200200200,
|
||
100000000000200000100000200000000000200000100000,
|
||
100000000000200000100000200000000000200000100000,
|
||
200200200000200000100000200000000000200000100000,
|
||
200000100100100000100000100000000000000000000000,
|
||
100000000000100000000000100000000000100000100000,
|
||
000000100000100000000000100000000000200000200000,
|
||
200200200000200200200000200200200000200200200000,
|
||
200200200200200000200000200000000000000000000000,
|
||
100100100000100100100000100100100000100100100000,
|
||
100100100100100000100000100000000000000000000000,
|
||
100000100000200000100100100000100000200000100000,
|
||
200200200000200000100100100000100000200000100000,
|
||
500000000000000000000000000000000008000000000000,
|
||
|
||
#GOGOSTART
|
||
300000000300000000300000000000000000000000000000,
|
||
100000100000200000100000000000100000200000100000,
|
||
100100100000200000100100100000400000400000100000,
|
||
100000200000200000200200100000000000200000100000,
|
||
100100100000200200200000100100100000200200200000,
|
||
100000100000200000100000000000100000200000100000,
|
||
100100100000200000100100100000400000400000100000,
|
||
100000200000200000200200100000200000200000100000,
|
||
200200200000200000100000100000000000300000000000,
|
||
100000100000200000100000000000100000200000100000,
|
||
100100100000200000100100100000400000400000100000,
|
||
100000200000200000200200100000000000200000100000,
|
||
100100100000200200200000100100100000200200200000,
|
||
100000100000200000100000000000100000200000100000,
|
||
100100100000200000100100100000400000400000100000,
|
||
100000200000200000200200100000200000200000100000,
|
||
100200200200200000100000100000200000200000200200,
|
||
100000200000100000200000100100100000200200200000,
|
||
300000300000300000300000300000000000400000000000,
|
||
|
||
#GOGOEND
|
||
|
||
|
||
#END
|
||
|
||
|
||
COURSE:Hard
|
||
LEVEL:5
|
||
BALLOON:9,7,9
|
||
SCOREINIT:700
|
||
SCOREDIFF:213
|
||
|
||
|
||
#START
|
||
|
||
|
||
000000000000000000000000000000000000000000000000,
|
||
000000000000400000000000000000000000000000000000,
|
||
000000000000000000000000300000000000300000000000,
|
||
000000000000400000000000000000000000000000000000,
|
||
000000000000000000000000300000000000300000000000,
|
||
100000000000100000100000000000100000100000000000,
|
||
100000100000000000100000100000000000500000000000,
|
||
000000000000000000000000000000800000000000000000,
|
||
#GOGOSTART
|
||
300000000300000000300000000000000000000000000000,
|
||
100000100000100000100000000000200000200000200000,
|
||
100000100000100000000000100000400000400000000000,
|
||
100000000000100000000000200000000000200000000000,
|
||
300000000000300000000000300000000000300000000000,
|
||
100000100000100000100000000000200000200000200000,
|
||
100000100000100000000000100000400000400000000000,
|
||
100000000000100000000000200000000000200000000000,
|
||
700000000000000000000000000000800000000000000000,
|
||
100000000000100000000000100000100000100000000000,
|
||
300000300000300000000000300000000000400000000000,
|
||
#GOGOEND
|
||
000000000000000000000000000000000000000000000000,
|
||
000000000000000000000000300000000000300000000000,
|
||
000000000000000000000000000000000000000000000000,
|
||
000000000000700000000000000000800000000000000000,
|
||
100000000000100000000000200000000000200000000000,
|
||
100000100000100000000000100000000000000000000000,
|
||
100000000000100000000000200000000000200000000000,
|
||
100000100000100000000000100000000000000000000000,
|
||
200000000000000000200000200000000000200000000000,
|
||
100000000000100000000000100000000000000000100000,
|
||
100000000000100000100000100000000000100000100000,
|
||
200000000000200000200000100000000000000000000000,
|
||
100000000000100000000000200000000000200000000000,
|
||
100000100000100000000000300000000000000000000000,
|
||
100000000000100000000000200000000000200000000000,
|
||
100000100000100000000000300000000000000000000000,
|
||
200000000000000000200000200000000000100000100000,
|
||
100000000000200000200000200000000000100000100000,
|
||
100000000000100000100000100000000000100000100000,
|
||
500000000000000000800000000000000000000000000000,
|
||
100000000000100000000000100000000000100000100000,
|
||
000000100000100000000000100000000000000000000000,
|
||
200000000000200000000000200000000000200000000000,
|
||
200000200000200000200000200000000000000000000000,
|
||
300000000000300000000000300000000000300000000000,
|
||
300000300000300000300000300000000000000000000000,
|
||
100000000000200000200000100000100000200000200000,
|
||
100000000000200000100000100000000000200000100000,
|
||
500000000000000000000000000000800000000000000000,
|
||
#GOGOSTART
|
||
300000000300000000300000000000000000000000000000,
|
||
100000100000100000100000000000200000200000200000,
|
||
100000100000100000000000100000400000400000000000,
|
||
100000000000100000000000200000000000200000000000,
|
||
300000000000300000000000300000000000300000000000,
|
||
100000100000100000100000000000200000200000200000,
|
||
100000100000100000000000100000400000400000000000,
|
||
100000000000100000000000200000000000200000000000,
|
||
700000000000000000000000000000800000000000000000,
|
||
100000100000100000100000000000200000200000200000,
|
||
100000100000100000000000100000400000400000000000,
|
||
100000000000100000000000200000000000200000000000,
|
||
300000000000300000000000300000000000300000000000,
|
||
100000100000100000100000000000200000200000200000,
|
||
100000100000100000000000100000400000400000000000,
|
||
100000000000100000000000200000000000200000000000,
|
||
500000000000000000000000000000800000000000000000,
|
||
100000000000100000000000100000100000100000000000,
|
||
300000300000300000000000300000000000400000000000,
|
||
#GOGOEND
|
||
|
||
|
||
#END
|
||
|
||
|
||
COURSE:Normal
|
||
LEVEL:4
|
||
BALLOON:4,6
|
||
SCOREINIT:740
|
||
SCOREDIFF:275
|
||
|
||
|
||
#START
|
||
|
||
|
||
000000000000000000000000000000000000000000000000,
|
||
000000000000400000000000000000000000000000000000,
|
||
000000000000000000000000300000000000300000000000,
|
||
000000000000400000000000000000000000000000000000,
|
||
000000000000000000000000300000000000300000000000,
|
||
100000000000000000100000000000000000100000000000,
|
||
000000100000000000000000100000000000500000000000,
|
||
000000000000000000000000000000800000000000000000,
|
||
#GOGOSTART
|
||
300000000300000000300000000000000000000000000000,
|
||
000000000000100000000000000000000000100000000000,
|
||
500000000000000000800000000000400000400000000000,
|
||
100000000000100000000000200000000000200000000000,
|
||
300000000000300000000000300000000000300000000000,
|
||
000000000000100000000000000000000000100000000000,
|
||
500000000000000000800000000000400000400000000000,
|
||
100000000000100000000000200000000000200000000000,
|
||
500000000000000000000000000000800000000000000000,
|
||
100000000000100000000000100000100000100000000000,
|
||
300000000000300000000000300000000000400000000000,
|
||
#GOGOEND
|
||
000000000000000000000000000000000000000000000000,
|
||
000000000000000000000000300000000000300000000000,
|
||
000000000000000000000000000000000000000000000000,
|
||
000000000000700000000000000000800000000000000000,
|
||
100000000000000000000000100000000000000000000000,
|
||
100000000000100000000000100000000000000000000000,
|
||
100000000000000000000000100000000000000000000000,
|
||
100000000000100000000000100000000000000000000000,
|
||
200000000000000000000000200000000000200000000000,
|
||
100000000000100000000000100000000000000000000000,
|
||
100000000000000000000000100000000000000000000000,
|
||
200000000000200000000000200000000000000000000000,
|
||
100000000000000000000000100000000000000000000000,
|
||
100000100000100000000000300000000000000000000000,
|
||
100000000000000000000000100000000000000000000000,
|
||
100000100000100000000000300000000000000000000000,
|
||
200000000000000000000000200000000000200000000000,
|
||
100000000000100000000000100000000000000000000000,
|
||
100000000000000000000000100000000000100000000000,
|
||
500000000000000000800000000000000000000000000000,
|
||
100000000000100000000000100000000000100000100000,
|
||
000000100000100000000000100000000000000000000000,
|
||
200000000000200000000000200000000000200000000000,
|
||
200000000000200000000000200000000000000000000000,
|
||
300000000000300000000000300000000000300000000000,
|
||
300000000000300000000000300000000000000000000000,
|
||
000000000000100000000000000000000000100000000000,
|
||
000000000000200000000000000000000000200000000000,
|
||
500000000000000000000000000000800000000000000000,
|
||
#GOGOSTART
|
||
300000000300000000300000000000000000000000000000,
|
||
000000000000100000000000000000000000100000000000,
|
||
500000000000000000800000000000400000400000000000,
|
||
100000000000100000000000200000000000200000000000,
|
||
300000000000300000000000300000000000300000000000,
|
||
000000000000100000000000000000000000100000000000,
|
||
500000000000000000800000000000400000400000000000,
|
||
100000000000100000000000200000000000200000000000,
|
||
700000000000000000000000000000800000000000000000,
|
||
000000000000100000000000000000000000100000000000,
|
||
500000000000000000800000000000400000400000000000,
|
||
100000000000100000000000200000000000200000000000,
|
||
300000000000300000000000300000000000300000000000,
|
||
000000000000100000000000000000000000100000000000,
|
||
500000000000000000800000000000400000400000000000,
|
||
100000000000100000000000200000000000200000000000,
|
||
500000000000000000000000000000800000000000000000,
|
||
100000000000100000000000100000100000100000000000,
|
||
300000000000300000000000300000000000400000000000,
|
||
#GOGOEND
|
||
|
||
|
||
#END
|
||
|
||
|
||
COURSE:Easy
|
||
LEVEL:3
|
||
BALLOON:4,6
|
||
SCOREINIT:530
|
||
SCOREDIFF:208
|
||
|
||
|
||
#START
|
||
|
||
|
||
000000000000000000000000000000000000000000000000,
|
||
000000000000400000000000000000000000000000000000,
|
||
000000000000000000000000300000000000300000000000,
|
||
000000000000400000000000000000000000000000000000,
|
||
000000000000000000000000300000000000300000000000,
|
||
000000000000000000000000000000000000000000000000,
|
||
000000000000000000000000000000000000500000000000,
|
||
000000000000000000000000000000800000000000000000,
|
||
#GOGOSTART
|
||
300000000300000000300000000000000000000000000000,
|
||
000000000000100000000000000000000000100000000000,
|
||
500000000000000000800000000000400000400000000000,
|
||
000000000000000000000000200000000000200000000000,
|
||
300000000000300000000000300000000000300000000000,
|
||
000000000000100000000000000000000000100000000000,
|
||
500000000000000000800000000000400000400000000000,
|
||
000000000000200000000000000000000000200000000000,
|
||
500000000000000000000000800000000000000000000000,
|
||
100000000000100000000000100000000000000000000000,
|
||
300000000000300000000000300000000000400000000000,
|
||
#GOGOEND
|
||
000000000000000000000000000000000000000000000000,
|
||
000000000000000000000000300000000000300000000000,
|
||
000000000000000000000000000000000000000000000000,
|
||
000000000000700000000000000000800000000000000000,
|
||
100000000000000000000000100000000000000000000000,
|
||
100000000000100000000000100000000000000000000000,
|
||
100000000000000000000000100000000000000000000000,
|
||
100000000000100000000000100000000000000000000000,
|
||
200000000000000000000000200000000000000000000000,
|
||
100000000000100000000000100000000000000000000000,
|
||
100000000000000000000000100000000000000000000000,
|
||
200000000000200000000000200000000000000000000000,
|
||
100000000000000000000000100000000000000000000000,
|
||
100000000000100000000000300000000000000000000000,
|
||
100000000000000000000000100000000000000000000000,
|
||
100000000000100000000000300000000000000000000000,
|
||
200000000000000000000000200000000000000000000000,
|
||
100000000000100000000000100000000000000000000000,
|
||
100000000000000000000000100000000000100000000000,
|
||
500000000000000000800000000000000000000000000000,
|
||
100000000000100000000000100000000000000000000000,
|
||
100000000000100000000000100000000000000000000000,
|
||
200000000000200000000000200000000000200000000000,
|
||
200000000000200000000000200000000000000000000000,
|
||
300000000000300000000000300000000000300000000000,
|
||
300000000000300000000000300000000000000000000000,
|
||
000000000000100000000000000000000000100000000000,
|
||
000000000000200000000000000000000000200000000000,
|
||
500000000000000000000000000000800000000000000000,
|
||
#GOGOSTART
|
||
300000000300000000300000000000000000000000000000,
|
||
000000000000100000000000000000000000100000000000,
|
||
500000000000000000800000000000400000400000000000,
|
||
000000000000000000000000200000000000200000000000,
|
||
300000000000300000000000300000000000300000000000,
|
||
000000000000100000000000000000000000100000000000,
|
||
500000000000000000800000000000400000400000000000,
|
||
000000000000200000000000000000000000200000000000,
|
||
700000000000000000000000000000800000000000000000,
|
||
000000000000100000000000000000000000100000000000,
|
||
500000000000000000800000000000400000400000000000,
|
||
000000000000000000000000200000000000200000000000,
|
||
300000000000300000000000300000000000300000000000,
|
||
000000000000100000000000000000000000100000000000,
|
||
500000000000000000800000000000400000400000000000,
|
||
000000000000200000000000000000000000200000000000,
|
||
500000000000000000000000800000000000000000000000,
|
||
100000000000100000000000100000000000000000000000,
|
||
300000000000300000000000300000000000400000000000,
|
||
#GOGOEND
|
||
|
||
|
||
#END
|
||
|