Files
ESE/07 Game Music/Overmaster/Overmaster.tja
T
2023-06-15 19:15:39 -05:00

584 lines
24 KiB
Plaintext

//TJADB Project
TITLE:Overmaster
TITLEJA:オーバーマスター
SUBTITLE:--Koji Nakagawa feat. Project Fairy/THE iDOLM@STER SP
BPM:178
WAVE:Overmaster.ogg
OFFSET:-4.145
DEMOSTART:56.455
COURSE:Edit
LEVEL:9
SCOREINIT:410
SCOREDIFF:103
#START
200000000000200000000000100000100100200000300000,
000000100100200000200200100100100000200000200200,
100100100000100100200000100100200000200000300000,
000000100100200000200200100100100000200000200200,
100200100000100000100000100200100000200000300000,
000000100000200200100000100000100000200000100200,
100000100000200200100000100000100100200000300000,
000000100000200200100000100000100000200000100200,
100000100000200200100000200200100100200000300000,
000000100000100100000200200000100000200000100200,
100000100000100100000200200000100100200000300000,
000000100000100100000200200000200200100200200000,
000000200200100100100100200200100100200000300000,
000000100000200200100000100000100000200000100200,
100000100000200200100000100000100100200000300000,
000000100000200200100000100000100000200000100200,
100000100000200200100000200200100100200000300000,
000000100000100100000200200000100000200000300000,
000000100000100000100100200000100000100000400000,
000000100000200000200200100000100000200000100000,
200200100000200000100100200000300000200200200200,
100000000000200000100000000000000000200000000000,
300000000000300000300000000000000000200000000000,
100000000000200000100000000000000000200000000000,
000000100000000000100000100000000000200000000000,
100000000000200000100000000000000000200000000000,
100000000000200000100000000000000000300000000000,
300000300000200000000000100000100000200000000000,
200200100100200200100100200000100000000000100000,
000000200200200000100000100000400000400000400000,
000000100000200000100000100200100000200000100000,
000000100000200000100000100100200000200000100000,
000000100000200000100200100000100000200000000000,
100000100000200000100200100000100200200000100000,
000000100000200000100100200000200000300000000000,
100100100200200200100000000000100000100200100100,
100200200200200200100000000000100000100200100100,
100200200200200200100000000000300000300000300000,
000000000000000000000000200200200200200200100000,
#GOGOSTART
000000100000200000100100200100100000200000100200,
#SCROLL 0.99
100000100200200000100000200200000200200000100000,
000000100000200000100200200200100000200000100200,
#SCROLL 1
100000100200200000100200200200100200200200100000,
000000100000200000100200100000000100200000100200,
200200100000200000100200200000100200200200100000,
000000100000200000000000100000100000200000100100,
200200100100200100100100200200100200200000100000,
000000100000200000100100200100100000200000100200,
100000100200200000100000200200000200200000100000,
000000100000200000100200100000100000200000100200,
#SCROLL 0.99
100000100200200000100200200000100200200200100000,
000000100000200000100200100000100000200000100200,
200200100000200000100200200200100200200200100000,
000000100000100000100000100200200100200200100000,
000000300000300000000000000000400000400000400000,
#GOGOEND
000000100000200100200000100000100000200000100200,
100000100000200000200200100100100000200000100000,
000000100000200000000000100100200200100100200200,
200200100200100100200100100100200000000000100200,
200200100000200000100000200000100000200000100000,
000000100000200000100000000000100000200000200100,
200200100100200200100100100200100100200200100000,
000000300000300000000000000000000000300000000000,
000000000000300000000000200200100100100000100000,
000000000000000000000000000000000000000000200000,
000000200000000000200000000000000000000000100000,
000000000000000000000000000000000000000000000000,
#GOGOSTART
#SCROLL 1
300000000000300000000000400000400000000000300000,
000000100000200000100200100000000100200000100200,
200200100000200000100200200200100200200200100000,
000000100000200000000000100000100000200000200100,
#GOGOEND
200100100200200100200200100100100100100000100000,
#GOGOSTART
000000100000200000100100200100100000200000100200,
100000100200200000100000200200000200200000100000,
000000100000200000100200200200100000200000100200,
100000100200200000100200200200100200200200100000,
000000100000200000100200100000100000200000100200,
200200100000200000100200200200100200200200100000,
000000100000100000100000200200100200100200100100,
100000000000300000300000000000400000000000400000,
000000100000200000000000100000100000200000100000,
000000100000200000000000200000100000200000100000,
000000100000200000000000100000200000200000100000,
000000100000200000000000100000400000000000400000,
000000100000200000100000000000100000200000100000,
000000100000200000100000100100100000200000100000,
000000100000200000200000200000300000300000300000,
000000200200100100100000200000100000000000500000,
000000000000000000000000000000000000000000000000,
000000000000000000000000000000000000000000000008,
#GOGOEND
#END
COURSE:Oni
LEVEL:8
BALLOON:13,12,12
SCOREINIT:530
SCOREDIFF:128
#START
200000000000200000000000100000200200200000100000,
000000100100200000100000100100100000200000000000,
100000200200200000200200200000300000000000300000,
000000100100200000100000100100100000200000000000,
100000100100100000100100100000300000300000300000,
000000100000200000000000100000100100200000100000,
000000100000200000000000100000200200200000100000,
000000100000200000000000100000100100200000100000,
000000100000200000000000100000200200200000100000,
000000100000200000000000100100100000200000100000,
000000100000200000000000100100200000200000100000,
000000100000200000000000100100100000200000100000,
000000400000100100100000400000100100100000300000,
000000100000200000100100200000100000200000000000,
200000100100200000100000200000100000000000100000,
000000100000200000100100200000100000200000000000,
200000100100200000100000200000100000000000100000,
000000100000200000000000300000200200200000300000,
000000300000400000000000300000200200200000300000,
000000600000000000000000000000000000000000000000,
000000000008000000000000400000300000000000000000,
100000000000000000100000000000100000200000200000,
100000000000200000100000000000100000200000000000,
700000000000000000000000000000000000000000000000,
000000000000800000000000000000000000000000000000,
100000000000000000100000000000100000200000200000,
100000000000200000100000000000100000200000000000,
7,
800000000000000000000000400000300000000000300000,
000000200000200000100000000000200000200000100000,
000000200000200000000000100100100000200000100000,
000000200000200000000000100000200000200000100000,
000000200000200000000000100100100000200000000000,
100000100000200000100100100000200000000000100000,
000000100000200000100100100000200000000000000000,
300000200200200000300000000000300000400000300000,
000000200200200000300000000000400000300000400000,
000000200200200000300000000000300000400000300000,
000000000000000000000000200100100100100000100000,
#GOGOSTART
000000100100200000100000100000100100200000000000,
100000200000200000100000000000100000200000100000,
000000100100200000100000100000100100200000000000,
100000200000200000100000000000100000200000100000,
000000100000200000000000100000200200200000100000,
000000100000200000000000100000200200200000500000,
000000000000000000000000000000000000000008000000,
000000100000200200100000200200100100100000100000,
000000100100200000100000100000100100200000000000,
100000200200200000100000000000100000200000100000,
000000100100200000100000100000100100200000000000,
100000200200200000100000000000100000200000100000,
000000100000200000000000100000200200200000100000,
000000100000200000000000100000200200200000500000,
000000000000000000000000000000000008000000300000,
000000300000300000000000000000300000300000300000,
#GOGOEND
000000100000200000100100100000000000200000100000,
000000100000200000000000100100100000200000100000,
000000100000200000000000100100100000200200200000,
200200100000200200100100100100100000000000100100,
200000100000100000200000100000200000000000100100,
200000100000200000100000000000100000200000100000,
200200100000200200100100100000100000200000100000,
000000300000300000000000000000000000300000000000,
000000000000300000000000200100100100100000100000,
000000000000000000000000000000000000000000200000,
000000200000000000200000000000000000000000100000,
000000000000000000000000000000000000000000000000,
#GOGOSTART
300000000000300000000000400000400000000000300000,
000000300000400000000000100000100100200000100000,
000000100000200000000000100000100100200000700000,
000000000000000000000000000000000000000000800000,
#GOGOEND
000000000000000000000000200200100100100000100000,
#GOGOSTART
000000100100200000100000200000100100200000000000,
100000200200200000100000000000100000200000100000,
000000100100200000100000200000100100200000000000,
100000200200200000100000000000100000200000100000,
000000200000200000000000100000200100200000100000,
000000200000200000000000100000200100200000100000,
000000100000200000100100200000100100100100200000,
300000000000400000300000000000300000000000300000,
000000100000200000000000200200100000200000100000,
000000100000200000000000200200100000200000100000,
000000100000200000100100200000100000200000100000,
000000100000200000100100200000400000000000400000,
000000100000200000000000200200100000200000100000,
000000100000200000000000200200100000200000100000,
000000100000200000100100200000300000300000300000,
000000200200100100100000200000100100100000500000,
000000000000000000000000000000000000000000000000,
000000000000000000000000000000000000000000000008,
#GOGOEND
#END
COURSE:Hard
LEVEL:7
BALLOON:6,6,10,10,24
SCOREINIT:630
SCOREDIFF:153
#START
200000000000200000000000100000100100100000100000,
000000100000200000000000100000100000200000000000,
100000100000200000100000100000200200200000100000,
000000100000200000000000100000100000200000000000,
100000100000100000100000100000100000100000100000,
000000100000200000100000000000100000200000100000,
000000100000200000100000000000100000200000500000,
000000000000000000000000000000800000000000000000,
000000000000000000000000100000100000200000100000,
000000100000200000000000100000100000200000100000,
000000100000200000000000100000100000200000100000,
000000100000200000100000000000100000200000300000,
000000000000000000000000000000000000000000100000,
000000100000200000100000000000100000200000100000,
000000100000200000100000000000100000200000500000,
000000000000000000000000000000000000000000800000,
000000000000000000000000100000100000200000100000,
000000100000200000000000100000200000000000300000,
000000300000300000000000000000000000000000600000,
000000000000000000000000000000000000000000000000,
000000800000000000000000000000000000000000000000,
100000000000200000200000000000000000200000000000,
300000000000400000400000000000000000200000000000,
100000000000100000100000000000000000200000000000,
100000000000100000100000000000000000200000000000,
100000000000200000200000000000000000200000000000,
100000000000200000200000000000000000400000000000,
300000300000000000100000000000100000200000000000,
200200200000200000200000100000100100100000100000,
000000100000200000100000000000300000400000300000,
000000100000200000000000100000100000200000100000,
000000100000200000000000100000100000200000100000,
000000100100100000300000000000100000200000000000,
100000000000200000000000100000100000200000100000,
000000200000100000000000100000200000200000000000,
700000000000000000000000800000000000000000700000,
000000000000000000800000000000000000000000700000,
000000000000000000000000000000000000000000000000,
000000100000000000000000000000000000800000000000,
000000000000000000000000000000000000000000100000,
#GOGOSTART
000000100000200000100100100000100000200000000000,
100000100000200000100000000000100000200000100000,
000000100000200000100100100000100000200000000000,
100000000000200000100000000000300000000000300000,
000000000000000000000000100000000000200000100000,
000000100000200000100000000000100000200000500000,
000000000000000000000000000000000000000000000800,
000000000000000000000000000000000000000000100000,
000000100000200000100100100000100000200000000000,
100000100000200000100000000000100000200000100000,
000000100000200000100100100000100000200000000000,
100000000000200000100000000000300000000000300000,
000000000000000000000000100000000000200000100000,
000000100000200000100000000000100000200000600000,
000000000000000000000000000800000000000000300000,
000000300000300000000000000000300000300000300000,
#GOGOEND
000000000000200000000000100000000000200000000000,
000000200000200000000000100000000000200000000000,
000000200000200000000000100100100000200200200000,
500000000000000000000000000800000000200200200000,
000000100000100000000000200000000000200000100000,
000000100000100000200000000000200000200000200000,
100100100000200200200000100100100000500000000000,
000000000800000000000000000000000000300000000000,
000000000000300000000000200000100100100000100000,
000000000000000000000000000000000000000000200000,
000000200000000000200000000000000000000000200000,
000000000000000000000000000000000000000000000000,
#GOGOSTART
400000000000400000000000300000300000000000300000,
000000100000200000000000100000100100100000100000,
000000100000200000100000000000100100100000700000,
100000000000000000000000000000000000000800000000,
#GOGOEND
000000000000000000000000000000000000000000100000,
#GOGOSTART
000000100000200000100100100000100000200000000000,
100000100000200000100000000000200000200000100000,
000000100000200000100100100000100000200000000000,
100000000000200000100000000000400000000000400000,
000000000000000000000000100000000000200000100000,
000000100000200000100000000000100000200000500000,
000000000000000000000000000000000800000000000000,
300000000000300000300000000000300000000000700000,
200400000000000000000000000000000000000000000000,
000000000000000000000000000000000000000800000000,
000000000000000000000000000000000000000000000000,
000000000000000000000000000000400000000000400000,
000000100000200000000000200000000000100100100000,
000000100000200000000000200000000000100100100000,
000000100000100000200000200000200000200000300000,
000000300000000000300000000000300000000000600000,
000000000000000000000000000000000000000000000000,
000000000000000000000000000000000000000000000800,
#GOGOEND
#END
COURSE:Normal
LEVEL:6
BALLOON:7,13
SCOREINIT:910
SCOREDIFF:298
#START
000000000000000000000000000000000000000000000000,
000000000000300000000000000000000000300000000000,
000000000000300000000000000000000000300000000000,
000000000000300000000000000000000000300000000000,
000000000000300000000000000000000000300000000000,
000000000000100000000000000000000000100000000000,
000000000000100000000000100000000000100000000000,
000000000000100000000000000000000000100000000000,
000000000000100000000000100000000000100000000000,
000000000000100000000000100000000000100000000000,
000000000000100000000000100000000000100000000000,
000000000000100000000000100000000000100000300000,
000000000000000000000000000000000000000000000000,
000000000000200000000000000000000000200000000000,
000000000000200000000000200000000000200000000000,
000000000000200000000000000000000000200000000000,
000000000000200000000000200000000000200000000000,
000000000000200000000000200000000000000000300000,
000000000000300000000000300000000000300000700000,
000000000000000000000000000000000000000000000000,
000000700000000000000000000000800000000000000000,
100000000000100000000000100000100000000000000000,
100000000000100000100000000000000000200000000000,
300000000000300000300000000000000000200000000000,
100000000000100000100000000000000000200000000000,
100000000000100000100000000000000000200000000000,
100000000000100000100000000000000000200000000000,
100000000000100000100000000000000000400000000000,
300000300000000000100000000000000000200000000000,
100000000000100000000000100000100000000000100000,
000000000000100000000000000000300000300000300000,
000000000000100000000000000000000000100000000000,
000000000000200000000000000000000000200000000000,
000000000000200000000000000000000000200000000000,
000000000000100000000000100000100000000000000000,
000000000000100000000000100000100000000000000000,
500000000000000000800000000000000000000000500000,
000000000000000000800000000000000000000000500000,
000000000000000000800000000000000000000000200000,
000000000000000000000000000000000000000000100000,
#GOGOSTART
000000100000100000000000100000000000000000000000,
100000100000000000100000000000000000000000100000,
000000100000100000000000100000000000000000000000,
100000000000100000100000000000100000000000300000,
000000000000000000000000500000000000000000000000,
000000000000000000000000000000000000000000000000,
000000000000000000000000000000000000800000000000,
000000000000000000000000000000000000000000100000,
000000100000100000000000100000000000000000000000,
100000100000000000100000000000000000000000100000,
000000100000100000000000100000000000000000000000,
100000000000100000100000000000100000000000300000,
000000000000000000000000500000000000000000000000,
000000000000000000000000000000000000000000000000,
000000000000000000000000000000000000800000000000,
000000000000000000000000000000300000300000300000,
#GOGOEND
000000000000200000000000000000000000200000000000,
000000000000200000000000000000000000200000000000,
000000000000300000000000000000000000300000000000,
000000000000300000000000000000000000300000000000,
000000000000400000000000000000000000400000000000,
000000000000400000000000000000000000400000000000,
000000000000300000000000000000000000300000000000,
000000000000000000000000000000000000000000000000,
000000000000000000000000000000000000000000200000,
000000000000000000000000000000000000000000200000,
000000000000000000000000000000000000000000200000,
000000000000000000000000000000000000000000000000,
#GOGOSTART
100000000000100000000000100000100000000000300000,
000000000000000000000000500000000000000000000000,
000000000000000000000000000000000000000000000000,
000000000000000000000000000000000000800000000000,
#GOGOEND
000000000000000000000000000000000000000000100000,
#GOGOSTART
000000100000100000000000100000000000000000000000,
100000100000000000100000000000000000000000100000,
000000100000100000000000100000000000000000000000,
100000000000100000100000000000100000000000300000,
000000000000000000000000500000000000000000000000,
000000000000000000000000000000000000000000000000,
000000000000000000000000000000800000000000000000,
300000000000000000000000000000000000000000700000,
000000000000000000000000000000000000000000000000,
000000100000000000000000000000000000000000000000,
000000000000000000000000000000000000800000000000,
000000000000000000000000000000000000000000000000,
000000000000000000000000000000300000000000300000,
000000000000000000000000000000000000000000000000,
000000000000000000000000000000000000000000000000,
000000000000000000000000000000000000000000300000,
000000300000000000300000000000300000000000600000,
000000000000000000000000000000000000000000000000,
000000000000000000000000000000000000000000800000,
#GOGOEND
#END
COURSE:Easy
LEVEL:4
BALLOON:5,13
SCOREINIT:680
SCOREDIFF:225
#START
000000000000000000000000000000000000000000000000,
000000000000300000000000000000000000300000000000,
000000000000300000000000000000000000300000000000,
000000000000300000000000000000000000300000000000,
000000000000300000000000000000000000300000000000,
000000000000100000000000000000000000100000000000,
000000000000100000000000100000000000100000000000,
000000000000100000000000000000000000100000000000,
000000000000100000000000000000000000100000000000,
000000000000100000000000100000000000100000000000,
000000000000100000000000000000000000100000000000,
000000000000100000000000100000000000000000300000,
000000000000000000000000000000000000000000000000,
000000000000200000000000000000000000200000000000,
000000000000200000000000200000000000200000000000,
000000000000200000000000000000000000200000000000,
000000000000200000000000200000000000200000000000,
000000000000200000000000200000000000000000300000,
000000000000000000000000000000000000000000700000,
000000000000000000000000000000000000000000000000,
000000500000000000000000000000800000000000000000,
100000000000100000000000100000000000100000000000,
500000000000000000800000000000000000200000000000,
600000000000000000800000000000000000200000000000,
500000000000000000800000000000000000200000000000,
500000000000000000800000000000000000200000000000,
500000000000000000800000000000000000200000000000,
500000000000000000800000000000000000400000000000,
600000000000000000800000000000000000200000000000,
100000000000100000000000100000000000000000000000,
000000000000100000000000000000000000300000000000,
000000000000100000000000000000000000100000000000,
000000000000200000000000000000000000200000000000,
000000000000200000000000000000000000200000000000,
000000000000100000000000000000000000100000000000,
000000000000100000000000000000000000100000000000,
500000000000000000800000000000000000000000500000,
000000000000000000800000000000000000000000500000,
000000000000000000800000000000000000000000200000,
000000000000000000000000000000000000000000100000,
#GOGOSTART
000000000000100000000000100000000000000000000000,
100000000000000000100000000000000000000000100000,
000000000000100000000000100000000000000000000000,
100000000000000000100000000000100000000000100000,
000000000000000000000000500000000000000000000000,
000000000000000000000000000000000000000000000000,
000000000000000000000000000000000000800000000000,
000000000000000000000000000000000000000000100000,
000000000000100000000000100000000000000000000000,
100000000000000000100000000000000000000000100000,
000000000000100000000000100000000000000000000000,
100000000000000000100000000000100000000000100000,
000000000000000000000000500000000000000000000000,
000000000000000000000000000000000000000000000000,
000000000000000000000000000000000000800000000000,
000000000000000000000000000000300000300000300000,
#GOGOEND
000000000000200000000000000000000000200000000000,
000000000000200000000000000000000000200000000000,
000000000000300000000000000000000000300000000000,
000000000000300000000000000000000000300000000000,
000000000000400000000000000000000000400000000000,
000000000000400000000000000000000000400000000000,
000000000000300000000000000000000000300000000000,
000000000000000000000000000000000000000000000000,
000000000000000000000000000000000000000000200000,
000000000000000000000000000000000000000000200000,
000000000000000000000000000000000000000000200000,
000000000000000000000000000000000000000000000000,
#GOGOSTART
100000000000100000000000100000000000000000300000,
000000000000000000000000500000000000000000000000,
000000000000000000000000000000000000000000000000,
000000000000000000000000000000000000800000000000,
#GOGOEND
000000000000000000000000000000000000000000100000,
#GOGOSTART
000000000000100000000000100000000000000000000000,
100000000000000000100000000000000000000000100000,
000000000000100000000000100000000000000000000000,
100000000000000000100000000000100000000000100000,
000000000000000000000000500000000000000000000000,
000000000000000000000000000000000000000000000000,
000000000000000000000000000000800000000000000000,
300000000000000000000000000000000000000000700000,
000000000000000000000000000000000000000000000000,
000000100000000000000000000000000000000000000000,
000000000000000000000000000000000000800000000000,
000000000000000000000000000000000000000000000000,
000000000000000000000000000000300000000000300000,
000000000000000000000000000000000000000000000000,
000000000000000000000000000000000000000000000000,
000000000000000000000000000000000000000000300000,
000000300000000000300000000000300000000000600000,
000000000000000000000000000000000000000000000000,
000000000000000000000000000000000000000000800000,
#GOGOEND
#END