690 lines
14 KiB
Plaintext
690 lines
14 KiB
Plaintext
//TJADB Project
|
||
TITLE:Overture Ⅹ
|
||
TITLEJA:序曲 ドラゴンクエストXより
|
||
SUBTITLE:--Koichi Sugiyama/Dragon Quest Ⅹ
|
||
BPM:80.2
|
||
WAVE:Overture X.ogg
|
||
OFFSET:-3.715
|
||
DEMOSTART:36.687
|
||
|
||
COURSE:Oni
|
||
LEVEL:5
|
||
BALLOON:40
|
||
SCOREINIT:1590
|
||
SCOREDIFF:608
|
||
|
||
|
||
#START
|
||
|
||
500000000000000000000000000000000000000000000008,
|
||
#MEASURE 2/4
|
||
#BPMCHANGE 81.77
|
||
#SCROLL 0.98
|
||
000000000000000000000000,
|
||
#MEASURE 5/4
|
||
#BPMCHANGE 83.13
|
||
#SCROLL 0.97
|
||
100000000000000000000000100000000000000000000000
|
||
#BPMCHANGE 74.47
|
||
#SCROLL 1.08
|
||
000000000000,
|
||
#MEASURE 4/4
|
||
#BPMCHANGE 82.1
|
||
#SCROLL 0.98
|
||
000000000000000000101010100000000000000000101010,
|
||
#MEASURE 2/4
|
||
#BPMCHANGE 83.16
|
||
#SCROLL 0.97
|
||
100000000000000000000000,
|
||
#MEASURE 4/4
|
||
#BPMCHANGE 79.54
|
||
#SCROLL 1.01
|
||
100000000000000000000000000000000000000000101010,
|
||
#BPMCHANGE 83.48
|
||
#SCROLL 0.96
|
||
100000000000000000101010100000000000000000000000,
|
||
#MEASURE 2/4
|
||
#BPMCHANGE 73.95
|
||
#SCROLL 1.09
|
||
000000000000000000000000,
|
||
#MEASURE 4/4
|
||
#BPMCHANGE 81.29
|
||
#SCROLL 0.99
|
||
500000000000000000000000000000000000000000000008,
|
||
#MEASURE 3/4
|
||
#BPMCHANGE 78.56
|
||
#SCROLL 1.02
|
||
000000000000300000000000
|
||
#BPMCHANGE 83.62
|
||
#SCROLL 0.96
|
||
300000000000,
|
||
#MEASURE 5/4
|
||
#BPMCHANGE 85.33
|
||
#SCROLL 1.48
|
||
400000000000
|
||
#BPMCHANGE 127.26
|
||
#SCROLL 0.99
|
||
000000000000000000000000100000100000100100100100,
|
||
#MEASURE 4/4
|
||
#BPMCHANGE 130.15
|
||
#SCROLL 0.97
|
||
200000000000000000000000100000100000100100100100,
|
||
#BPMCHANGE 128.81
|
||
#SCROLL 0.98
|
||
200000000200200000000000200000000200200000000000,
|
||
#BPMCHANGE 128.49
|
||
200000000200200200200200
|
||
#BPMCHANGE 115.71
|
||
#SCROLL 1.09
|
||
200000000000300000000000,
|
||
|
||
#GOGOSTART
|
||
#BPMCHANGE 125.74
|
||
#SCROLL 0.99
|
||
100000000100200000000000100000000100200000000000,
|
||
#BPMCHANGE 125.23
|
||
#SCROLL 1
|
||
100000000000100100100000100100100000100000100000,
|
||
#BPMCHANGE 124.68
|
||
100000000100200000000000100000000100200000000000,
|
||
#BPMCHANGE 125.43
|
||
100000000000100000000000100100100000100000000100,
|
||
#BPMCHANGE 123.57
|
||
#SCROLL 1.01
|
||
100000000000200000000000100000000100200000000000,
|
||
#BPMCHANGE 126.37
|
||
#SCROLL 0.99
|
||
100000100000200000200000100100100000100000100000,
|
||
#BPMCHANGE 123.41
|
||
#SCROLL 1.01
|
||
100000000000200000000000100000100100100000200000,
|
||
#BPMCHANGE 126.29
|
||
#SCROLL 0.99
|
||
100000100000100100100000100100100000100000100000,
|
||
#BPMCHANGE 124.26
|
||
#SCROLL 1
|
||
500000000000000000000008000000100000200000200000,
|
||
#BPMCHANGE 124.64
|
||
100000100000200200200000100000100000200000100000,
|
||
#BPMCHANGE 125.43
|
||
500000000000000000000008000000100000200000200000,
|
||
#BPMCHANGE 124.64
|
||
100000100000200200200000100000100000200000100000,
|
||
#BPMCHANGE 125.87
|
||
#SCROLL 0.99
|
||
500000000000000000000008000000200000100000100000,
|
||
#BPMCHANGE 124.64
|
||
#SCROLL 1
|
||
100000100000200200200000100000100100100000200000,
|
||
#BPMCHANGE 121.91
|
||
#SCROLL 1.02
|
||
300000000000400000000000300000000000400000000000,
|
||
#BPMCHANGE 125.5
|
||
#SCROLL 0.99
|
||
600000000000000000000008
|
||
|
||
#GOGOEND
|
||
#BPMCHANGE 139.3
|
||
#SCROLL 0.9
|
||
000000000000000000000000,
|
||
#MEASURE 3/4
|
||
#BPMCHANGE 56.05
|
||
#SCROLL 2.23
|
||
000000000000
|
||
#BPMCHANGE 67.44
|
||
#SCROLL 1.85
|
||
200000000000
|
||
#BPMCHANGE 67.35
|
||
000000000000,
|
||
#MEASURE 5/4
|
||
#BPMCHANGE 70.68
|
||
#SCROLL 1.77
|
||
200000000000
|
||
#BPMCHANGE 61.25
|
||
#SCROLL 2.04
|
||
200000000000
|
||
#BPMCHANGE 72.99
|
||
#SCROLL 1.71
|
||
200000000000000000000000000000000000,
|
||
#MEASURE 3/4
|
||
#BPMCHANGE 67.26
|
||
#SCROLL 1.86
|
||
100000000000
|
||
#BPMCHANGE 66
|
||
#SCROLL 1.89
|
||
100000000000
|
||
#BPMCHANGE 61.52
|
||
#SCROLL 2.03
|
||
100000000000,
|
||
#MEASURE 4/4
|
||
#BPMCHANGE 69.55
|
||
#SCROLL 1.8
|
||
500000000000000000000000000000000080000000000000,
|
||
#MEASURE 2/4
|
||
#BPMCHANGE 60.5
|
||
#SCROLL 2.06
|
||
300000000000000000000000,
|
||
#BPMCHANGE 45.17
|
||
#SCROLL 2.76
|
||
300000000000000000000000,
|
||
#MEASURE 4/4
|
||
#BPMCHANGE 59.34
|
||
#SCROLL 2.1
|
||
7,
|
||
08,
|
||
|
||
|
||
#END
|
||
|
||
|
||
COURSE:Hard
|
||
LEVEL:4
|
||
BALLOON:35
|
||
SCOREINIT:1810
|
||
SCOREDIFF:1000
|
||
|
||
|
||
#START
|
||
|
||
|
||
500000000000000000000000000000000000000000000080,
|
||
#BPMCHANGE 81.77
|
||
#SCROLL 0.98
|
||
#MEASURE 2/4
|
||
000000000000000000000000,
|
||
#BPMCHANGE 83.13
|
||
#SCROLL 0.97
|
||
#MEASURE 5/4
|
||
100000000000000000000000100000000000000000000000
|
||
#BPMCHANGE 74.47
|
||
#SCROLL 1.08
|
||
000000000000,
|
||
#BPMCHANGE 82.11
|
||
#SCROLL 0.98
|
||
#MEASURE 4/4
|
||
000000000000000000101010100000000000000000101010,
|
||
#BPMCHANGE 83.16
|
||
#SCROLL 0.97
|
||
#MEASURE 2/4
|
||
100000000000000000000000,
|
||
#BPMCHANGE 79.54
|
||
#SCROLL 1.01
|
||
#MEASURE 4/4
|
||
100000000000000000000000000000000000000000101010,
|
||
#BPMCHANGE 83.48
|
||
#SCROLL 0.96
|
||
100000000000000000101010100000000000000000000000,
|
||
#BPMCHANGE 73.95
|
||
#SCROLL 1.09
|
||
#MEASURE 2/4
|
||
000000000000000000000000,
|
||
#BPMCHANGE 81.29
|
||
#SCROLL 0.99
|
||
#MEASURE 4/4
|
||
500000000000000000000000000000000000000000000080,
|
||
#BPMCHANGE 78.56
|
||
#SCROLL 1.02
|
||
#MEASURE 3/4
|
||
000000000000300000000000
|
||
#BPMCHANGE 83.62
|
||
#SCROLL 0.96
|
||
300000000000,
|
||
#BPMCHANGE 85.33
|
||
#SCROLL 1.48
|
||
#MEASURE 5/4
|
||
400000000000
|
||
#BPMCHANGE 127.26
|
||
#SCROLL 0.99
|
||
000000000000000000000000100000100000100100100000,
|
||
#BPMCHANGE 130.15
|
||
#SCROLL 0.97
|
||
#MEASURE 4/4
|
||
200000000000000000000000100000100000100100100000,
|
||
#BPMCHANGE 128.81
|
||
#SCROLL 0.98
|
||
200000000200200000000000200000000200200000000000,
|
||
#BPMCHANGE 128.49
|
||
200000000200200000000000
|
||
#BPMCHANGE 115.71
|
||
#SCROLL 1.09
|
||
200000000000300000000000,
|
||
#BPMCHANGE 125.74
|
||
#SCROLL 0.99
|
||
#GOGOSTART
|
||
100000000000100000000000100000000000200000000000,
|
||
#BPMCHANGE 125.23
|
||
#SCROLL 1
|
||
100000000000100000000000000000000000100000000100,
|
||
#BPMCHANGE 124.68
|
||
100000000000000000100000000000100000100000200000,
|
||
#BPMCHANGE 125.43
|
||
100000000000100000000000000000000000200000000200,
|
||
#BPMCHANGE 123.57
|
||
#SCROLL 1.01
|
||
200000000000200000000000100000000000100000000000,
|
||
#BPMCHANGE 126.37
|
||
#SCROLL 0.99
|
||
100000100000200000200000100000100000100000100000,
|
||
#BPMCHANGE 123.41
|
||
#SCROLL 1.01
|
||
200000000000000000000000000000100000100000200000,
|
||
#BPMCHANGE 126.29
|
||
#SCROLL 0.99
|
||
100000000000100000000000100000000000100000000000,
|
||
#BPMCHANGE 124.26
|
||
#SCROLL 1
|
||
500000000000000000000080000000100000200000200000,
|
||
#BPMCHANGE 124.64
|
||
100000000000000000000000100000000000200000000000,
|
||
#BPMCHANGE 125.43
|
||
500000000000000000000080000000100000200000200000,
|
||
#BPMCHANGE 124.64
|
||
100000000000000000000000100000000000200000000000,
|
||
#BPMCHANGE 125.87
|
||
#SCROLL 0.99
|
||
500000000000000000000080000000100000100000200000,
|
||
#BPMCHANGE 124.64
|
||
#SCROLL 1
|
||
200000000000000000000000000000100000200000200000,
|
||
#BPMCHANGE 121.91
|
||
#SCROLL 1.02
|
||
100000000000000000000000100000000000000000000000,
|
||
#BPMCHANGE 125.5
|
||
#SCROLL 0.99
|
||
500000000000000000000080
|
||
#BPMCHANGE 139.31
|
||
#SCROLL 0.9
|
||
|
||
#GOGOEND
|
||
000000000000000000000000,
|
||
#BPMCHANGE 56.05
|
||
#SCROLL 2.23
|
||
#MEASURE 3/4
|
||
000000000000
|
||
#BPMCHANGE 67.44
|
||
#SCROLL 1.85
|
||
200000000000
|
||
#BPMCHANGE 67.35
|
||
000000000000,
|
||
#BPMCHANGE 70.68
|
||
#SCROLL 1.77
|
||
#MEASURE 5/4
|
||
200000000000
|
||
#BPMCHANGE 61.25
|
||
#SCROLL 2.04
|
||
200000000000
|
||
#BPMCHANGE 72.99
|
||
#SCROLL 1.71
|
||
200000000000000000000000000000000000,
|
||
#BPMCHANGE 67.26
|
||
#SCROLL 1.86
|
||
#MEASURE 3/4
|
||
100000000000
|
||
#BPMCHANGE 66
|
||
#SCROLL 1.89
|
||
100000000000
|
||
#BPMCHANGE 61.52
|
||
#SCROLL 2.03
|
||
100000000000,
|
||
#BPMCHANGE 69.55
|
||
#SCROLL 1.8
|
||
#MEASURE 4/4
|
||
500000000000000000000000000000000080000000000000,
|
||
#BPMCHANGE 60.5
|
||
#SCROLL 2.06
|
||
#MEASURE 2/4
|
||
300000000000000000000000,
|
||
#BPMCHANGE 45.17
|
||
#SCROLL 2.76
|
||
300000000000000000000000,
|
||
#BPMCHANGE 59.34
|
||
#SCROLL 2.1
|
||
#MEASURE 4/4
|
||
700000000000000000000000000000000000000000000000,
|
||
000000000000000000000008000000000000000000000000,
|
||
|
||
|
||
#END
|
||
|
||
|
||
COURSE:Normal
|
||
LEVEL:4
|
||
BALLOON:24
|
||
SCOREINIT:1850
|
||
SCOREDIFF:1480
|
||
|
||
|
||
#START
|
||
|
||
|
||
500000000000000000000000000000000000000000000080,
|
||
#BPMCHANGE 81.77
|
||
#SCROLL 0.98
|
||
#MEASURE 2/4
|
||
000000000000000000000000,
|
||
#BPMCHANGE 83.13
|
||
#SCROLL 0.97
|
||
#MEASURE 5/4
|
||
100000000000000000000000100000000000000000000000
|
||
#BPMCHANGE 74.47
|
||
#SCROLL 1.08
|
||
000000000000,
|
||
#BPMCHANGE 82.11
|
||
#SCROLL 0.98
|
||
#MEASURE 4/4
|
||
500000000000000000000000000000000000000000000080,
|
||
#BPMCHANGE 83.16
|
||
#SCROLL 0.97
|
||
#MEASURE 2/4
|
||
000000000000000000000000,
|
||
#BPMCHANGE 79.54
|
||
#SCROLL 1.01
|
||
#MEASURE 4/4
|
||
100000000000000000000000000000000000000000000000,
|
||
#BPMCHANGE 83.48
|
||
#SCROLL 0.96
|
||
300000000000000000000000300000000000000000000000,
|
||
#BPMCHANGE 73.95
|
||
#SCROLL 1.09
|
||
#MEASURE 2/4
|
||
000000000000000000000000,
|
||
#BPMCHANGE 81.29
|
||
#SCROLL 0.99
|
||
#MEASURE 4/4
|
||
500000000000000000000000000000000000000000000080,
|
||
#BPMCHANGE 78.56
|
||
#SCROLL 1.02
|
||
#MEASURE 3/4
|
||
000000000000300000000000
|
||
#BPMCHANGE 83.62
|
||
#SCROLL 0.96
|
||
300000000000,
|
||
#BPMCHANGE 85.33
|
||
#SCROLL 1.48
|
||
#MEASURE 5/4
|
||
400000000000
|
||
#BPMCHANGE 127.26
|
||
#SCROLL 0.99
|
||
000000000000000000000000100000100000000000000000,
|
||
#BPMCHANGE 130.15
|
||
#SCROLL 0.97
|
||
#MEASURE 4/4
|
||
200000000000000000000000100000100000000000000000,
|
||
#BPMCHANGE 128.81
|
||
#SCROLL 0.98
|
||
200000000000100000000000200000000000100000000000,
|
||
#BPMCHANGE 128.49
|
||
200000000000100000000000
|
||
#BPMCHANGE 115.71
|
||
#SCROLL 1.09
|
||
200000000000300000000000,
|
||
#BPMCHANGE 125.74
|
||
#SCROLL 0.99
|
||
#GOGOSTART
|
||
100000000000100000000000100000000000100000000000,
|
||
#BPMCHANGE 125.23
|
||
#SCROLL 1
|
||
100000000000100000000000000000000000100000000000,
|
||
#BPMCHANGE 124.68
|
||
100000000000000000100000000000100000100000100000,
|
||
#BPMCHANGE 125.43
|
||
100000000000100000000000000000000000200000000000,
|
||
#BPMCHANGE 123.57
|
||
#SCROLL 1.01
|
||
200000000000200000000000200000000000200000000000,
|
||
#BPMCHANGE 126.37
|
||
#SCROLL 0.99
|
||
200000000000000000000000000000200000200000200000,
|
||
#BPMCHANGE 123.41
|
||
#SCROLL 1.01
|
||
200000000000000000000000000000100000100000100000,
|
||
#BPMCHANGE 126.29
|
||
#SCROLL 0.99
|
||
100000000000100000000000100000000000100000000000,
|
||
#BPMCHANGE 124.26
|
||
#SCROLL 1
|
||
500000000000000080000000000000100000100000100000,
|
||
#BPMCHANGE 124.64
|
||
100000000000000000000000100000000000100000000000,
|
||
#BPMCHANGE 125.43
|
||
500000000000000080000000000000100000100000100000,
|
||
#BPMCHANGE 124.64
|
||
100000000000000000000000100000000000000000000000,
|
||
#BPMCHANGE 125.87
|
||
#SCROLL 0.99
|
||
500000000000000080000000000000200000200000200000,
|
||
#BPMCHANGE 124.64
|
||
#SCROLL 1
|
||
200000000000000000000000000000100000100000100000,
|
||
#BPMCHANGE 121.91
|
||
#SCROLL 1.02
|
||
100000000000000000000000100000000000000000000000,
|
||
#BPMCHANGE 125.5
|
||
#SCROLL 0.99
|
||
500000000000000000000080
|
||
#BPMCHANGE 139.31
|
||
#SCROLL 0.9
|
||
|
||
#GOGOEND
|
||
000000000000000000000000,
|
||
#BPMCHANGE 56.05
|
||
#SCROLL 2.23
|
||
#MEASURE 3/4
|
||
000000000000
|
||
#BPMCHANGE 67.44
|
||
#SCROLL 1.85
|
||
200000000000
|
||
#BPMCHANGE 67.35
|
||
000000000000,
|
||
#BPMCHANGE 70.68
|
||
#SCROLL 1.77
|
||
#MEASURE 5/4
|
||
200000000000
|
||
#BPMCHANGE 61.25
|
||
#SCROLL 2.04
|
||
200000000000
|
||
#BPMCHANGE 72.99
|
||
#SCROLL 1.71
|
||
200000000000000000000000000000000000,
|
||
#BPMCHANGE 67.26
|
||
#SCROLL 1.86
|
||
#MEASURE 3/4
|
||
100000000000
|
||
#BPMCHANGE 66
|
||
#SCROLL 1.89
|
||
100000000000
|
||
#BPMCHANGE 61.52
|
||
#SCROLL 2.03
|
||
100000000000,
|
||
#BPMCHANGE 69.55
|
||
#SCROLL 1.8
|
||
#MEASURE 4/4
|
||
500000000000000000000000000000000080000000000000,
|
||
#BPMCHANGE 60.5
|
||
#SCROLL 2.06
|
||
#MEASURE 2/4
|
||
300000000000000000000000,
|
||
#BPMCHANGE 45.17
|
||
#SCROLL 2.76
|
||
300000000000000000000000,
|
||
#BPMCHANGE 59.34
|
||
#SCROLL 2.1
|
||
#MEASURE 4/4
|
||
700000000000000000000000000000000000000000000000,
|
||
000000000000000000000008000000000000000000000000,
|
||
|
||
|
||
#END
|
||
|
||
|
||
COURSE:Easy
|
||
LEVEL:3
|
||
BALLOON:4,15
|
||
SCOREINIT:1560
|
||
SCOREDIFF:1760
|
||
|
||
|
||
#START
|
||
|
||
|
||
500000000000000000000000000000000000000000000080,
|
||
#BPMCHANGE 81.77
|
||
#SCROLL 0.98
|
||
#MEASURE 2/4
|
||
000000000000000000000000,
|
||
#BPMCHANGE 83.13
|
||
#SCROLL 0.97
|
||
#MEASURE 5/4
|
||
100000000000000000000000100000000000000000000000
|
||
#BPMCHANGE 74.47
|
||
#SCROLL 1.08
|
||
000000000000,
|
||
#BPMCHANGE 82.11
|
||
#SCROLL 0.98
|
||
#MEASURE 4/4
|
||
500000000000000000000000000000000000000000000080,
|
||
#BPMCHANGE 83.16
|
||
#SCROLL 0.97
|
||
#MEASURE 2/4
|
||
000000000000000000000000,
|
||
#BPMCHANGE 79.54
|
||
#SCROLL 1.01
|
||
#MEASURE 4/4
|
||
100000000000000000000000000000000000000000000000,
|
||
#BPMCHANGE 83.48
|
||
#SCROLL 0.96
|
||
300000000000000000000000300000000000000000000000,
|
||
#BPMCHANGE 73.95
|
||
#SCROLL 1.09
|
||
#MEASURE 2/4
|
||
000000000000000000000000,
|
||
#BPMCHANGE 81.29
|
||
#SCROLL 0.99
|
||
#MEASURE 4/4
|
||
500000000000000000000000000000000000000000000080,
|
||
#BPMCHANGE 78.56
|
||
#SCROLL 1.02
|
||
#MEASURE 3/4
|
||
000000000000300000000000
|
||
#BPMCHANGE 83.62
|
||
#SCROLL 0.96
|
||
300000000000,
|
||
#BPMCHANGE 85.33
|
||
#SCROLL 1.48
|
||
#MEASURE 5/4
|
||
400000000000
|
||
#BPMCHANGE 127.26
|
||
#SCROLL 0.99
|
||
000000000000000000000000100000000000000000000000,
|
||
#BPMCHANGE 130.15
|
||
#SCROLL 0.97
|
||
#MEASURE 4/4
|
||
200000000000000000000000100000000000000000000000,
|
||
#BPMCHANGE 128.81
|
||
#SCROLL 0.98
|
||
200000000000000000000000100000000000100000000000,
|
||
#BPMCHANGE 128.49
|
||
200000000000000000000000
|
||
#BPMCHANGE 115.71
|
||
#SCROLL 1.09
|
||
200000000000000000000000,
|
||
#BPMCHANGE 125.74
|
||
#SCROLL 0.99
|
||
#GOGOSTART
|
||
100000000000100000000000100000000000100000000000,
|
||
#BPMCHANGE 125.23
|
||
#SCROLL 1
|
||
100000000000000000000000000000000000000000000000,
|
||
#BPMCHANGE 124.68
|
||
100000000000000000000000000000000000000000000000,
|
||
#BPMCHANGE 125.43
|
||
100000000000100000000000000000000000000000000000,
|
||
#BPMCHANGE 123.57
|
||
#SCROLL 1.01
|
||
100000000000100000000000100000000000100000000000,
|
||
#BPMCHANGE 126.37
|
||
#SCROLL 0.99
|
||
100000000000000000000000000000000000000000000000,
|
||
#BPMCHANGE 123.41
|
||
#SCROLL 1.01
|
||
100000000000000000000000000000000000000000000000,
|
||
#BPMCHANGE 126.29
|
||
#SCROLL 0.99
|
||
100000000000100000000000100000000000100000000000,
|
||
#BPMCHANGE 124.26
|
||
#SCROLL 1
|
||
300000000000000000000000000000000000000000000000,
|
||
#BPMCHANGE 124.64
|
||
200000000000000000000000100000000000100000000000,
|
||
#BPMCHANGE 125.43
|
||
300000000000000000000000000000000000000000000000,
|
||
#BPMCHANGE 124.64
|
||
200000000000000000000000100000000000100000000000,
|
||
#BPMCHANGE 125.87
|
||
#SCROLL 0.99
|
||
300000000000000000000000000000000000000000000000,
|
||
#BPMCHANGE 124.64
|
||
#SCROLL 1
|
||
700000000000000000000000000000000800000000000000,
|
||
#BPMCHANGE 121.91
|
||
#SCROLL 1.02
|
||
300000000000000000000000300000000000000000000000,
|
||
000000000000000000000000000000000000000000000000,
|
||
#BPMCHANGE 125.5
|
||
#SCROLL 0.99
|
||
500000000000000000000080
|
||
|
||
#GOGOEND
|
||
#BPMCHANGE 139.31
|
||
#SCROLL 0.9
|
||
000000000000000000000000,
|
||
#BPMCHANGE 56.05
|
||
#SCROLL 2.23
|
||
#MEASURE 3/4
|
||
000000000000
|
||
#BPMCHANGE 67.44
|
||
#SCROLL 1.85
|
||
200000000000
|
||
#BPMCHANGE 67.35
|
||
000000000000,
|
||
#BPMCHANGE 70.68
|
||
#SCROLL 1.77
|
||
#MEASURE 5/4
|
||
200000000000
|
||
#BPMCHANGE 61.25
|
||
#SCROLL 2.04
|
||
200000000000
|
||
#BPMCHANGE 72.99
|
||
#SCROLL 1.71
|
||
200000000000000000000000000000000000,
|
||
#BPMCHANGE 67.26
|
||
#SCROLL 1.86
|
||
#MEASURE 3/4
|
||
100000000000
|
||
#BPMCHANGE 66
|
||
#SCROLL 1.89
|
||
100000000000
|
||
#BPMCHANGE 61.52
|
||
#SCROLL 2.03
|
||
100000000000,
|
||
#BPMCHANGE 69.55
|
||
#SCROLL 1.8
|
||
#MEASURE 4/4
|
||
500000000000000000000000000000000080000000000000,
|
||
#BPMCHANGE 60.5
|
||
#SCROLL 2.06
|
||
#MEASURE 2/4
|
||
300000000000000000000000,
|
||
#BPMCHANGE 45.17
|
||
#SCROLL 2.76
|
||
300000000000000000000000,
|
||
#BPMCHANGE 59.34
|
||
#SCROLL 2.1
|
||
#MEASURE 4/4
|
||
700000000000000000000000000000000000000000000000,
|
||
000000000000000000000008000000000000000000000000,
|
||
|
||
|
||
#END
|
||
|